Welcome Guest ( Log In | Register )

Объявления

* gmail.com упорно продолжает считать почту с нас "unsolicited" и отбивает в том числе и письма активации, поэтому просьба использовать альтернативные почтовые ящики.
------------
* gmail.com continues reject all mail from us as "unsolicited" (activation mails too) therefore please use alternate mail servers.

> Releases Upload / Добавление релизов

Добавить релиз тут / Click here to add release
Рекомендованные обменники / Recommended file shares

 
Reply to this topicStart new topic
> Postcryptum - Abyss Of Unborn (2024), Technical/Melodic Death Metal
post Apr 3 2024, 13:14:10
Post #1

Правь статус, ####!111
**************
Group: Металариец
Posts: 8,703
Releases: 6949
On Forums: 13 years 5 months
Thanks: 121895 time(s)
Italy


(IMG:https://metalarea.org/images/audiocovers/2024_Apr/acov_tid394974_thumb.jpg)

*Artist: Postcryptum
*Album: Abyss Of Unborn
*Year: 2024
*Genre: Technical/Melodic Death Metal
*Country: Belarus (IMG:https://metalarea.org/forum/style_images/flags/Belarus.png)
*Format: mp3@CBR320kbps
*Size: 80MB

Tracklist:
1.Last Anathema 05:16
2.Abyss of Unborn 06:17
3.Apocalyptic Gnosis 03:58
4.Dismemberment of Order 05:30
5.How Many Time Release After Us 04:52
6.The Beast Inside 04:14
7.The Dark Reality 03:39
******************************
Total playing time: 33:46

Preview 1
(IMG:https://metalarea.org/images/youtube.png)

Technical info
(IMG:https://metalarea.org/images/spectrogram/2024_Apr/dd035a36cb984941bb4f85e0160a6626.png)
Input File: 7.The Dark Reality.mp3
Channels : 2
Sample Rate : 44100
Precision : 16-bit
Duration : 00:03:39.73 = 9690137 samples = 16479.8 CDDA sectors
File Size : 9.40M
Bit Rate : 342k
Sample Encoding: MPEG audio (layer I, II or III)
Comments :
Title=The Dark Reality
Artist=Postcryptum / Ерохин Евгений / Демидович Дмитрий
Album=Abyss of Unborn
Tracknumber=7/7
Year=2024
Discnumber=1/1



Register


Go to the top of the page
  Insert nick Quick quote
+Quote Post

Reply to this topicStart new topic
1 User(s) are reading this topic (1 Guests and 0 Anonymous Users)
0 Members:

 



- Lo-Fi Version Support form
Copyrights and abuse reports form
Time is now: 23rd April 2024 - 09:32:09