Welcome Guest ( Log In | Register )

Объявления

* gmail.com упорно продолжает считать почту с нас "unsolicited" и отбивает в том числе и письма активации, поэтому просьба использовать альтернативные почтовые ящики.
------------
* gmail.com continues reject all mail from us as "unsolicited" (activation mails too) therefore please use alternate mail servers.

> Releases Upload / Добавление релизов

Добавить релиз тут / Click here to add release
Рекомендованные обменники / Recommended file shares

 
Reply to this topicStart new topic
> Hammerate - Chronic Delusions [ep] (2022), Thrash Metal
post Apr 3 2024, 13:30:38
Post #1

Правь статус, ####!111
**************
Group: Металариец
Posts: 35,634
Releases: 26525
From: Г.Харьков
On Forums: 11 years 11 months
Thanks: 573591 time(s)
Ukraine


(IMG:https://metalarea.org/images/audiocovers/2024_Apr/acov_tid394975_thumb.jpg)

*Artist: Hammerate
*Album: Chronic Delusions [ep]
*Year: 2022
*Genre: Thrash Metal
*Country: Brazil (IMG:https://metalarea.org/forum/style_images/flags/Brazil.png)
*Format: mp3@CBR320kbps
*Size: 38MB

Tracklist:
1. The Hidden System 04:36
2. Conquer New Lands 06:05
3. Ruined Nation 05:36
******************************
Total playing time: 16:17



Extended info
FLAC-Rip
Fábio Ribak Bass
Fred Nonis Drums
Leo Nonis Guitars
Paulo Morgani Guitars
Guilherme Casali Vocals


Technical info
(IMG:https://metalarea.org/images/spectrogram/2024_Apr/da22f92e0bd80ef98993f0d3e5aad1b8.png)
Input File: 02 - Conquer New Lands.mp3
Channels : 2
Sample Rate : 44100
Precision : 16-bit
Duration : 00:06:05.00 = 16096500 samples = 27375 CDDA sectors
File Size : 14.8M
Bit Rate : 324k
Sample Encoding: MPEG audio (layer I, II or III)
Comments :
Title=Conquer New Lands
Artist=Hammerate
Album=Chronic Delusions
Tracknumber=2
Year=2022-04-22
Genre=オルタナティヴ
Discnumber=1



Register


Go to the top of the page
  Insert nick Quick quote
+Quote Post

Reply to this topicStart new topic
1 User(s) are reading this topic (1 Guests and 0 Anonymous Users)
0 Members:

 



- Lo-Fi Version Support form
Copyrights and abuse reports form
Time is now: 23rd April 2024 - 09:51:53