Welcome Guest ( Log In | Register )

Объявления

* gmail.com упорно продолжает считать почту с нас "unsolicited" и отбивает в том числе и письма активации, поэтому просьба использовать альтернативные почтовые ящики.
------------
* gmail.com continues reject all mail from us as "unsolicited" (activation mails too) therefore please use alternate mail servers.

> И неформату есть предел.

Рэп/хип-хоп/шансон/поп удаляются. Для них есть свои порталы.

> Imutenvrv - I:mutenara [ep] (2024), Progressive Metal
post Apr 3 2024, 13:59:23
Post #1

Правь статус, ####!111
**************
Group: Металариец
Posts: 55,796
Releases: 1189
On Forums: 14 years 10 months
Thanks: 54543 time(s)
Russian Federation


(IMG:https://metalarea.org/images/audiocovers/2024_Apr/acov_tid394978_thumb.jpg)

*Artist: Imutenvrv
*Album: I:mutenara [ep]
*Year: 2024
*Genre: Progressive Metal
*Country: Russian Federation (IMG:https://metalarea.org/forum/style_images/flags/Russian%20Federation.png)
*Format: mp3@CBR320kbps
*Size: 44MB

Tracklist:
1. Seket (feat. Shane)
2. Nehet (feat. Kyle Kujira)
3. Nehet
4. Leviathan
******************************
Total playing time: 19:11

Technical info
(IMG:https://metalarea.org/images/spectrogram/2024_Apr/600ef98a409f1d05c64efb2ef3abe259.png)
Input File: 01 - Seket (feat. Shane).mp3
Channels : 2
Sample Rate : 44100
Precision : 16-bit
Duration : 00:03:51.00 = 10187100 samples = 17325 CDDA sectors
File Size : 9.23M
Bit Rate : 320k
Sample Encoding: MPEG audio (layer I, II or III)
Comments :
Title=Seket (feat. Shane)
Artist=Imutenvrv
Album=I:mutenara
Tracknumber=1
Year=2024-03-31
Genre=Progressive Metal



Register


Go to the top of the page
  Insert nick Quick quote
+Quote Post
 
Start new topic
Replies (1 - 1)
post Apr 4 2024, 19:17:57
Post #2

21st Century Schizoid Man
**************
Group: Металариец
Posts: 8,381
Releases: 310
From: 1984
On Forums: 15 years 11 months
Thanks: 9270 time(s)
Unknown




Металкор: неформат.
Go to the top of the page
  Insert nick Quick quote
+Quote Post

Reply to this topicStart new topic
2 User(s) are reading this topic (2 Guests and 0 Anonymous Users)
0 Members:

 



- Lo-Fi Version Support form
Copyrights and abuse reports form
Time is now: 23rd April 2024 - 09:56:54