Welcome Guest ( Log In | Register )

Объявления

* gmail.com упорно продолжает считать почту с нас "unsolicited" и отбивает в том числе и письма активации, поэтому просьба использовать альтернативные почтовые ящики.
------------
* gmail.com continues reject all mail from us as "unsolicited" (activation mails too) therefore please use alternate mail servers.

> И неформату есть предел.

Рэп/хип-хоп/шансон/поп удаляются. Для них есть свои порталы.

> Monocast - Детства Край (2024), Alternative/Modern Metal
post Apr 3 2024, 14:08:17
Post #1

Правь статус, ####!111
**************
Group: Металариец
Posts: 55,796
Releases: 1189
On Forums: 14 years 10 months
Thanks: 54543 time(s)
Russian Federation


(IMG:https://metalarea.org/images/audiocovers/2024_Apr/acov_tid394980_thumb.jpg)

*Artist: Monocast
*Album: Детства Край
*Year: 2024
*Genre: Alternative/Modern Metal
*Country: Russian Federation (IMG:https://metalarea.org/forum/style_images/flags/Russian%20Federation.png)
*Format: mp3@CBR320kbps
*Size: 125MB

Tracklist:
1. Дропшот (feat. Юла)
2. В Поисках Мечты (feat. Дмитрий Борисенков / Чёрный Обелиск)
3. После Поцелуя Неба (feat. Пётр Елфимов / Гран-КуражЪ & Виктор Смольский)
4. Циклон
5. Детства Край (feat. Александр Кэп / Революция)
6. Лунатик
7. Их Нет
8. Наркоз
9. Танцуй И Пой
10. MVP
11. Истоки
12. После Поцелуя Неба (Instrumental)
13. Их Нет (Instrumental)
14. В Поисках Мечты (Instrumental)
******************************
Total playing time: 54:36

Technical info
(IMG:https://metalarea.org/images/spectrogram/2024_Apr/90f0d7c2b4ea2417d281a9d87c8f2d93.png)
Input File: 06 Лунатик.mp3
Channels : 2
Sample Rate : 44100
Precision : 16-bit
Duration : 00:03:27.47 = 9149471 samples = 15560.3 CDDA sectors
File Size : 8.30M
Bit Rate : 320k
Sample Encoding: MPEG audio (layer I, II or III)
Comments :
Title=Ëóíàòèê
Artist=Monocast
Album=Äåòñòâà Êðàé
Tracknumber=6
Year=2024
Genre=Alternative Metal



Register


Go to the top of the page
  Insert nick Quick quote
+Quote Post
 
Start new topic
Replies (1 - 1)
post Apr 3 2024, 15:55:47
Post #2

Чёткий пацан с Ветеранов
Group Icon
Group: V.I.P
Posts: 9,451
Releases: 38
From: Город над вольной Невой
On Forums: 17 years 10 months
Thanks: 4913 time(s)
Russian Federation


Хотел тоже залить сегодня)))
Что-то в этом альбоме есть.
Часть мне понравилась.
Go to the top of the page
  Insert nick Quick quote
+Quote Post

Reply to this topicStart new topic
2 User(s) are reading this topic (2 Guests and 0 Anonymous Users)
0 Members:

 



- Lo-Fi Version Support form
Copyrights and abuse reports form
Time is now: 23rd April 2024 - 09:16:03