Welcome Guest ( Log In | Register )

Объявления

* gmail.com упорно продолжает считать почту с нас "unsolicited" и отбивает в том числе и письма активации, поэтому просьба использовать альтернативные почтовые ящики.
------------
* gmail.com continues reject all mail from us as "unsolicited" (activation mails too) therefore please use alternate mail servers.

> Releases Upload / Добавление релизов

Добавить релиз тут / Click here to add release
Рекомендованные обменники / Recommended file shares

 
Reply to this topicStart new topic
> Deliria - Spellcraft [ep] (2024), Atmospheric/Post-Black Metal
post Apr 3 2024, 14:09:55
Post #1

Правь статус, ####!111
**************
Group: Металариец
Posts: 8,703
Releases: 6949
On Forums: 13 years 5 months
Thanks: 121892 time(s)
Italy


(IMG:https://metalarea.org/images/audiocovers/2024_Apr/acov_tid394981_thumb.jpg)

*Artist: Deliria
*Album: Spellcraft [ep]
*Year: 2024
*Genre: Atmospheric/Post-Black Metal
*Country: United States (IMG:https://metalarea.org/forum/style_images/flags/United%20States.png)
*Format: mp3@CBR320kbps
*Size: 19MB

Tracklist:
1.Spellcraft 04:23
2.Gemini 03:29
******************************
Total playing time: 7:52



Extended info
7''EP eecorded October 2020 - April 2022.


Technical info
(IMG:https://metalarea.org/images/spectrogram/2024_Apr/9ea5250efae6f794fb3f010af6639ba2.png)
Input File: 1.Spellcraft.mp3
Channels : 2
Sample Rate : 44100
Precision : 16-bit
Duration : 00:04:23.93 = 11639401 samples = 19794.9 CDDA sectors
File Size : 11.0M
Bit Rate : 332k
Sample Encoding: MPEG audio (layer I, II or III)
Comments :
Title=Spellcraft
Artist=Deliria
Album=Spellcraft
Tracknumber=1/2
Year=2024
Discnumber=1/1



Register


Go to the top of the page
  Insert nick Quick quote
+Quote Post

Reply to this topicStart new topic
2 User(s) are reading this topic (2 Guests and 0 Anonymous Users)
0 Members:

 



- Lo-Fi Version Support form
Copyrights and abuse reports form
Time is now: 23rd April 2024 - 09:30:01