Welcome Guest ( Log In | Register )

Объявления

* gmail.com упорно продолжает считать почту с нас "unsolicited" и отбивает в том числе и письма активации, поэтому просьба использовать альтернативные почтовые ящики.
------------
* gmail.com continues reject all mail from us as "unsolicited" (activation mails too) therefore please use alternate mail servers.

> Releases Upload / Добавление релизов

Добавить релиз тут / Click here to add release
Рекомендованные обменники / Recommended file shares

 
Reply to this topicStart new topic
> Sankaku - Kanashimi No Ō: King Of Sorrow (悲しみの王) (2024), Atmospheric Black Metal/Blackgaze (D8)
post Apr 3 2024, 16:36:14
Post #1

Правь статус, ####!111
**************
Group: Металариец
Posts: 7,467
Releases: 6834
From: Одесса
On Forums: 15 years 10 months
Thanks: 79507 time(s)
Ukraine


(IMG:https://metalarea.org/images/audiocovers/2024_Apr/acov_tid394982_thumb.jpg)

*Artist: Sankaku
*Album: Kanashimi No Ō: King Of Sorrow (悲しみの王)
*Year: 2024
*Genre: Atmospheric Black Metal/Blackgaze
*Country: United States (IMG:https://metalarea.org/forum/style_images/flags/United%20States.png)
*Format: mp3@CBR320kbps
*Size: 72MB

Tracklist:
1. Tsurikomi-goshi (釣込腰) 07:47
2. Ko-uchi-makikomi (小内巻込) 08:48
3. Ura-nage (裏投) 14:12
******************************
Total playing time: 30:47



Extended info
Album title is in reference to the Sade song "King of Sorrow"
Art is "Sadness" by Hirezaki Eiho

For all RYM/Metal Archives users, please list this as an album. It is three tracks, but their length should suffice for an album.

All album purchases will be donated to "Doctors without Borders" to assist with the ongoing crisis in Gaza. I will post proof of donations on my Instagram, although it may be a little bit as I currently do not have a bank account due to my closing it due to issues with my bank. I will be setting up a new one in the next few days, so I will post proof there.

If you would like to give to them directly instead of buying this album, you can do that here: (www.paypal.com/fundraiser/charity/14505) Contact me at Instagram or my email at sankakurandorimail@gmail.com with the amount you donated and preferably a screenshot and I will email you wav files of all of my tracks. If you don't want to send a screenshot for privacy reasons, that's fine.
Thanks.


Technical info
(IMG:https://metalarea.org/images/spectrogram/2024_Apr/49984bf0bfd93f370a2f120b3f34e101.png)
Input File: 03. Ura-nage (裏投).mp3
Channels : 2
Sample Rate : 44100
Precision : 16-bit
Duration : 00:14:12.90 = 37612714 samples = 63967.2 CDDA sectors
File Size : 34.1M
Bit Rate : 320k
Sample Encoding: MPEG audio (layer I, II or III)
Comments :
Title=Ura-nage (??)
Artist=Sankaku
Album=Kanashimi no O: King of Sorrow (?????)
Tracknumber=3
Year=2024
Genre=138



Register


Go to the top of the page
  Insert nick Quick quote
+Quote Post

Reply to this topicStart new topic
2 User(s) are reading this topic (2 Guests and 0 Anonymous Users)
0 Members:

 



- Lo-Fi Version Support form
Copyrights and abuse reports form
Time is now: 23rd April 2024 - 09:48:47