Welcome Guest ( Log In | Register )

Объявления

* gmail.com упорно продолжает считать почту с нас "unsolicited" и отбивает в том числе и письма активации, поэтому просьба использовать альтернативные почтовые ящики.
------------
* gmail.com continues reject all mail from us as "unsolicited" (activation mails too) therefore please use alternate mail servers.

> Releases Upload / Добавление релизов

Добавить релиз тут / Click here to add release
Рекомендованные обменники / Recommended file shares

> Snakebite - Cobra Crew (2024), Heavy Metal/Hard Rock
post Apr 3 2024, 17:00:19
Post #1

Правь статус, ####!111
**************
Group: Металариец
Posts: 7,467
Releases: 6834
From: Одесса
On Forums: 15 years 10 months
Thanks: 79505 time(s)
Ukraine


(IMG:https://metalarea.org/images/audiocovers/2024_Apr/acov_tid394983_thumb.jpg)

*Artist: Snakebite
*Album: Cobra Crew
*Year: 2024
*Genre: Heavy Metal/Hard Rock
*Country: Germany (IMG:https://metalarea.org/forum/style_images/flags/Germany.png)
*Format: mp3@CBR320kbps
*Size: 96MB

Tracklist:
1. Blow It Up
2. Stormriders
3. Heading for the Best
4. Wheels Keep on Turning
5. Don't Turn Away
6. My Burning Love
7. Weekend Warrior
8. Kill Wig Metal
9. Chained to Rock
10. Long Way Home
******************************
Total playing time: 40:11



Extended info
Line - up:
Julian Fischer - Drums, Vocals (backing) (ex-Pictura, ex-Beltane, Double Crush Syndrome, Suicide Machine, ex-Horrizon)
Dominik "Nikki" Wagner - Vocals, Guitars
Chris Van Kough - Guitars, Vocals (backing)
Alex Lacroix - Bass, Vocals (backing)

Guest/Session:
Peter Gedert - Keyboards (Horrizon)
Melina Di Febo - Vocals (backing)
Agata Pilarska - Vocals (backing)

After "Princess Of Pain" (2015), "Rise Of The Snake" (2018) and the live album "100 Desperate Hearts - live!" Snakebite now present their third studio album "Cobra Crew".

With catchy songs somewhere between melodic hard rock and 80s heavy metal, the german four-piece always ensure a good mood and a real eighties feeling. 10 new songs dedicated to their fans - the Cobra Crew, recognizable by their silver-coloured snake patch.

Musically SNAKEBITE rely on melodic metal hits (e.g. "Stormriders", "Wheels Keep On Turning", "Weekend Warrior"), catchy 80s rock songs ("Heading For The Best", "Long Way Home"), and fine "feel-good" anthems that invite you to sing along, such as the somewhat self-ironic "Kill Wig Metal" or the stomper "Chained To Rock".

For production, recording, mixing and mastering, SNAKEBITE once again brought Dennis Koehne (Sodom, Lacuna Coil, among others) and Tom Kornis (Chaos A.D. Frankfurt) on board, who have been working with the band since the first album.

SNAKEBITE are now back in top form with ten brand new songs on the album "Cobra Crew" - go give it a try and support!


Technical info
(IMG:https://metalarea.org/images/spectrogram/2024_Apr/f5bac0e94e66e235a6b87518469b23eb.png)
Input File: 03.Heading For The Best.mp3
Channels : 2
Sample Rate : 44100
Precision : 16-bit
Duration : 00:04:08.34 = 10951618 samples = 18625.2 CDDA sectors
File Size : 9.97M
Bit Rate : 321k
Sample Encoding: MPEG audio (layer I, II or III)
Comments :
Title=Heading For The Best
Artist=Snakebite
Album=Cobra Crew
Tracknumber=3
Year=2024
Genre=Heavy Metal | Hard Rock



Register


Go to the top of the page
  Insert nick Quick quote
+Quote Post
 
Start new topic
Replies (1 - 2)
post Apr 5 2024, 08:10:47
Post #2

Друг Уточек
*****
Group: Металариец
Posts: 436
Releases: 65
From: Гексия
On Forums: 15 years 4 months
Thanks: 339 time(s)
Russian Federation


Отличный альбом, сначала смутила песня "Kill Wig Metal" но потом прочитал инфу и врубился. Всё у группы хорошо и надеюсь будет. Спасибо!
Go to the top of the page
  Insert nick Quick quote
+Quote Post
post Apr 6 2024, 19:50:55
Post #3

Три Литра
***
Group: Завсегдатай
Posts: 217
Releases: 0
On Forums: 9 years 5 months
Thanks: 44 time(s)
Unknown


Альбом и впрямь неплох.
Мелодично, по-восьмидесятнически, без излишних сахарных соплей...
Go to the top of the page
  Insert nick Quick quote
+Quote Post

Reply to this topicStart new topic
1 User(s) are reading this topic (1 Guests and 0 Anonymous Users)
0 Members:

 



- Lo-Fi Version Support form
Copyrights and abuse reports form
Time is now: 23rd April 2024 - 08:26:02