Welcome Guest ( Log In | Register )

Объявления

* gmail.com упорно продолжает считать почту с нас "unsolicited" и отбивает в том числе и письма активации, поэтому просьба использовать альтернативные почтовые ящики.
------------
* gmail.com continues reject all mail from us as "unsolicited" (activation mails too) therefore please use alternate mail servers.

> Releases Upload / Добавление релизов

Добавить релиз тут / Click here to add release
Рекомендованные обменники / Recommended file shares

> Witch Vomit - Funeral Sanctum (2024), Old School Death Metal
post Apr 3 2024, 19:48:19
Post #1

Правь статус, ####!111
**************
Group: Металариец
Posts: 35,941
Releases: 26785
From: Г.Харьков
On Forums: 12 years 2 weeks
Thanks: 581045 time(s)
Ukraine


(IMG:https://metalarea.org/images/audiocovers/2024_Apr/acov_tid394989_thumb.jpg)

*Artist: Witch Vomit
*Album: Funeral Sanctum
*Year: 2024
*Genre: Old School Death Metal
*Country: United States (IMG:https://metalarea.org/forum/style_images/flags/United%20States.png)
*Format: mp3@CBR320kbps
*Size: 75MB

Tracklist:
1. Dying Embers (Intro) 01:35
2. Endless Fall 03:14
3. Blood of Abomination 02:22
4. Serpentine Shadows 05:09
5. Decaying Angelic Flesh 03:30
6. Black Wings of Desolation 04:26
7. Dominion of a Darkened Realm 03:08
8. Endarkened Spirits 01:00
9. Abject Silence (Interlude) 02:00
10. Funeral Sanctum 04:08
******************************
Total playing time: 30:32



Extended info
Filth Drums (2012-present)
See also: Apraxic, Brain Rot, Miserable, ex-Smut, ex-Adzalaan (live), ex-Dr. Loomis, ex-Street Plant
Tempter Guitars, Vocals (2012-present)
See also: Torture Rack, Miserable, ex-Dagger Lust, ex-Smut, ex-Triumvir Foul (live), ex-Uškumgallu (live), ex-Utzalu, ex-Dr. Loomis, ex-Pissblood
JG Bass (2014-present)
See also: Torture Rack
CL Guitars (2017-present)
See also: Apraxic (live), Aldebaran, ex-Murderess, ex-Trepanation, ex-Hulder (live), ex-Sempiternal Dusk (live)



Technical info
(IMG:https://metalarea.org/images/spectrogram/2024_Apr/75029a705cb6900c13a7424a2d9004e0.png)
Input File: 04. Serpentine Shadows.mp3
Channels : 2
Sample Rate : 44100
Precision : 16-bit
Duration : 00:05:09.00 = 13626900 samples = 23175 CDDA sectors
File Size : 12.9M
Bit Rate : 334k
Sample Encoding: MPEG audio (layer I, II or III)
Comments :
Title=Serpentine Shadows
Artist=Witch Vomit
Album=Funeral Sanctum
Tracknumber=04
Year=2024
Genre=Metal



Register


Go to the top of the page
  Insert nick Quick quote
+Quote Post
 
Start new topic
Replies (1 - 4)
post Apr 3 2024, 20:06:28
Post #2

Правь статус, ####!111
**************
Group: Металариец
Posts: 35,941
Releases: 26785
From: Г.Харьков
On Forums: 12 years 2 weeks
Thanks: 581045 time(s)
Ukraine


FLAC (Tracks) 237 mb
Register


Go to the top of the page
  Insert nick Quick quote
+Quote Post
post Apr 3 2024, 22:52:45
Post #3

Мегаманьяк
***********
Group: Металариец
Posts: 1,890
Releases: 26
From: Москва
On Forums: 16 years 1 month
Thanks: 1343 time(s)
Antarctica


На медиафайр, думается, нет смысла заливать хоть какую-то музыку, не запаролив архив - уничтожают в секунды.
А альбом ждал, на ютубе принципиально слушать не хотел.


Thanks:
Go to the top of the page
  Insert nick Quick quote
+Quote Post
post Apr 7 2024, 05:26:23
Post #4

кручу наждак
**************
Group: Металариец
Posts: 6,552
Releases: 111
From: Самара
On Forums: 14 years 2 weeks
Thanks: 5111 time(s)
Russian Federation


Мракобесно, придумленно и башкотрясно в правильных пропорциях. Крутой альбом. В дэтовом топе года точно будет, а может и на основной топ замахнется.
Go to the top of the page
  Insert nick Quick quote
+Quote Post
post Apr 7 2024, 08:31:25
Post #5

Правь статус, ####!111
**************
Group: Металариец
Posts: 2,456
Releases: 0
On Forums: 15 years 2 months
Thanks: 985 time(s)
Antarctica


А мне он видится безвкусной жвачкой. Серость.
Go to the top of the page
  Insert nick Quick quote
+Quote Post

Reply to this topicStart new topic
2 User(s) are reading this topic (2 Guests and 0 Anonymous Users)
0 Members:

 



- Lo-Fi Version Support form
Copyrights and abuse reports form
Time is now: 26th May 2024 - 09:01:46