Welcome Guest ( Log In | Register )

Объявления

* gmail.com упорно продолжает считать почту с нас "unsolicited" и отбивает в том числе и письма активации, поэтому просьба использовать альтернативные почтовые ящики.
------------
* gmail.com continues reject all mail from us as "unsolicited" (activation mails too) therefore please use alternate mail servers.
> Uttertomb - Nebulas Of Self-Desecration (2024), Death Metal
post Apr 3 2024, 20:18:44
Post #1

Правь статус, ####!111
**************
Group: Металариец
Posts: 36,460
Releases: 27188
From: Г.Харьков
On Forums: 12 years 2 months
Thanks: 592717 time(s)
Ukraine


(IMG:https://metalarea.org/images/audiocovers/2024_Apr/acov_tid394990_thumb.jpg)

*Artist: Uttertomb
*Album: Nebulas Of Self-Desecration
*Year: 2024
*Genre: Death Metal
*Country: Chile (IMG:https://metalarea.org/forum/style_images/flags/Chile.png)
*Format: mp3@CBR320kbps
*Size: 100MB

Tracklist:
1. Nec Spe Nec Metu
2. Exhumation of the Womb’s Splendour
3. Graceless Thaumaturgy
4. Opisthotonic Funerals
5. Aurora Cruoris
6. Seraphobia
7. Ominous flesh Relinquishment
8. Nebulas of Self-Desecration
******************************
Total playing time: 43:13





Extended info
AV Drums (2011-present)
See also: Cadaveric Cult, Negative or Nothing, ex-Putrid Evocation, ex-Ultratomb
SS Guitars (lead), Vocals (2011-present)
See also: Cadaveric Cult, Communion, ex-Death Vomit, ex-Violent Scum, ex-Ultratomb
JR Bass (2018-present)
See also: Temple, ex-Black Grail
JC Guitars (rhythm) (2023-present)
See also: Pestivomous, Verbum


Technical info
(IMG:https://metalarea.org/images/spectrogram/2024_Apr/d8a150e2a88ee3ac58a6bc39fa58dcda.png)
Input File: Uttertomb - Nebulas of Self-Desecration - 07. Ominous Flesh Relinquishment.mp3
Channels : 2
Sample Rate : 44100
Precision : 16-bit
Duration : 00:04:15.57 = 11270769 samples = 19168 CDDA sectors
File Size : 10.4M
Bit Rate : 326k
Sample Encoding: MPEG audio (layer I, II or III)
Comments :
Title=Ominous Flesh Relinquishment
Artist=Uttertomb
Album=Nebulas of Self-Desecration
Tracknumber=7/8
Year=2024
Genre=Metal



Register


Go to the top of the page
  Insert nick Quick quote
+Quote Post
 
Start new topic
Replies (1 - 5)
post Apr 3 2024, 21:28:17
Post #2

Правь статус, ####!111
**************
Group: Металариец
Posts: 36,460
Releases: 27188
From: Г.Харьков
On Forums: 12 years 2 months
Thanks: 592717 time(s)
Ukraine


FLAC (Tracks) 330 mb
Register


Go to the top of the page
  Insert nick Quick quote
+Quote Post
post Apr 4 2024, 10:24:56
Post #3

Добрейшей души Мегаманьяк
**************
Group: Металариец
Posts: 2,378
Releases: 0
From: Bashkortostan, Таптыҡ
On Forums: 16 years 5 months
Thanks: 1141 time(s)
Russian Federation


Мракобесненько. Чота чилийцы в последнее время активизировались - DECONSEKRATED, UNAUSSPRECHLICHEN KULTEN, HORRIFYING, теперь вот эти ещё, да и PENTAGRAM CHILE на подходе


Thanks:
(1) judaz,
Go to the top of the page
  Insert nick Quick quote
+Quote Post
post Apr 14 2024, 04:56:52
Post #4

кручу наждак
**************
Group: Металариец
Posts: 6,634
Releases: 111
From: Самара
On Forums: 14 years 2 months
Thanks: 5176 time(s)
Russian Federation


По единственному доступному превьюшному треку решил, что будет молотилка в духе Fossilization. По факту это ближе к UNAUSSPRECHLICHEN KULTEN. Так же тягуче и для меня не слишком интересно.
Go to the top of the page
  Insert nick Quick quote
+Quote Post
post Jun 20 2024, 21:02:01
Post #5

Full-of-Hate
**************
Group: Металариец
Posts: 5,811
Releases: 0
From: Moscow
On Forums: 15 years 3 weeks
Thanks: 7183 time(s)
Russian Federation


Весьма адОвая пластинка. Ультра интенсивная ритм-секция, ультра пещерный саунд с дооооолгим эхо... Сыро, мерзко, обреченно.
Еще на пару метров вглубь ада и это можно было бы сравнивать со всяческими Grave Upheaval, но здесь пока членораздельность партий присутствует, соло прописаны акцентировано, хотя для остального портили звук долго и со знанием дела =) Бесoёбят знатно, мне понравилось.


Thanks:
(1) Chasm,
Go to the top of the page
  Insert nick Quick quote
+Quote Post
post Jul 10 2024, 09:21:02
Post #6

a caress of pale light
**************
Group: Металариец
Posts: 8,810
Releases: 13
On Forums: 14 years 8 months
Thanks: 4510 time(s)
Unknown


Вроде бы и не так уж чтобы мало такого нынче, некий узкоспециализированный тренд присутствует. В целом звучит хорошечно, матёро и подземельно-глубоко. Расслушаем-с.
Go to the top of the page
  Insert nick Quick quote
+Quote Post

Reply to this topicStart new topic
2 User(s) are reading this topic (2 Guests and 0 Anonymous Users)
0 Members:

 



- Lo-Fi Version Support form
Copyrights and abuse reports form
Time is now: 24th July 2024 - 09:54:03