Welcome Guest ( Log In | Register )

Объявления

* gmail.com упорно продолжает считать почту с нас "unsolicited" и отбивает в том числе и письма активации, поэтому просьба использовать альтернативные почтовые ящики.
------------
* gmail.com continues reject all mail from us as "unsolicited" (activation mails too) therefore please use alternate mail servers.

> Releases Upload / Добавление релизов

Добавить релиз тут / Click here to add release
Рекомендованные обменники / Recommended file shares

> Attic - Return Of The Witchfinder (2024), Heavy Metal
post Apr 4 2024, 12:44:59
Post #1

Правь статус, ####!111
**************
Group: Металариец
Posts: 35,990
Releases: 26826
From: Г.Харьков
On Forums: 12 years 3 weeks
Thanks: 581815 time(s)
Ukraine


(IMG:https://metalarea.org/images/audiocovers/2024_Apr/acov_tid395010_thumb.jpg)

*Artist: Attic
*Album: Return Of The Witchfinder
*Year: 2024
*Genre: Heavy Metal
*Country: Germany (IMG:https://metalarea.org/forum/style_images/flags/Germany.png)
*Format: mp3@CBR320kbps
*Size: 117MB

Tracklist:
1. The Covenant 01:48
2. Darkest Rites 05:35
3. Hailstorm and Tempest 05:32
4. The Thief's Candle 06:16
5. Return of the Witchfinder 05:40
6. Offerings to Baalberith 06:35
7. Azrael 04:57
8. Up in the Castle 01:07
9. The Baleful Baron 05:07
10. Synodus Horrenda 07:34
******************************
Total playing time: 50:11




Extended info
Katte Guitars (2010-present)
See also: ex-Warhammer, ex-Iron Kobra (live), ex-Zwielicht (live), ex-Erazor, ex-Freezing Night
Meister Cagliostro Vocals (2010-present)
See also: ex-Divine Wings
Chris Bass (2012-present)
See also: ex-Blood Atonement, ex-Warhammer
J.P. Drums (2013-present)
See also: Odium Immortalis, Paria, ex-Hallig, ex-Zwielicht
Max Povver Guitars (2019-present)
See also: Luzifer (live), Witching Hour (live), Erazor, Spiker, ex-Abythic, ex-Blood Atonement, ex-Ragefield



Technical info
(IMG:https://metalarea.org/images/spectrogram/2024_Apr/aa912cc3c721f4dd6bd87cd13da254b9.png)
Input File: 07 - Azrael.mp3
Channels : 2
Sample Rate : 44100
Precision : 16-bit
Duration : 00:04:57.03 = 13099067 samples = 22277.3 CDDA sectors
File Size : 12.1M
Bit Rate : 327k
Sample Encoding: MPEG audio (layer I, II or III)
Comments :
Title=Azrael
Artist=Attic
Album=Return of the Witchfinder
Tracknumber=7/10
Year=2024
Discnumber=1/1



Register


Go to the top of the page
  Insert nick Quick quote
+Quote Post
 
Start new topic
Replies (1 - 7)
post Apr 4 2024, 19:28:50
Post #2

Восемь Литров
********
Group: Металариец
Posts: 850
Releases: 0
On Forums: 14 years 10 months
Thanks: 211 time(s)
Ukraine


СПАСИБО ЗА НОВУЮ ГРУППУ!!
Go to the top of the page
  Insert nick Quick quote
+Quote Post
post Apr 4 2024, 20:39:31
Post #3

Правь статус, ####!111
**************
Group: Металариец
Posts: 35,990
Releases: 26826
From: Г.Харьков
On Forums: 12 years 3 weeks
Thanks: 581815 time(s)
Ukraine


ЦИТАТА(Витон @ Apr 4 2024, 19:28:50) *
СПАСИБО ЗА НОВУЮ ГРУППУ!!

Новая? (IMG:style_emoticons/default/fear.gif) (IMG:style_emoticons/default/hmm.gif) (IMG:style_emoticons/default/1488.gif)
You're welcome! (IMG:style_emoticons/default/20.gif)


Thanks:
Go to the top of the page
  Insert nick Quick quote
+Quote Post
post Apr 9 2024, 14:23:05
Post #4

Common dweller of hell
**************
Group: Металариец
Posts: 5,397
Releases: 12
From: Dnipro
On Forums: 15 years 10 months
Thanks: 2198 time(s)
Ukraine


ЦИТАТА(Витон @ Apr 4 2024, 21:28:50) *
СПАСИБО ЗА НОВУЮ ГРУППУ!!

14 лет в строю, выпустили до этого два отличных альбома
Go to the top of the page
  Insert nick Quick quote
+Quote Post
post Apr 9 2024, 14:50:29
Post #5

Маньяк
**********
Group: Металариец
Posts: 1,041
Releases: 0
From: Лыткарино
On Forums: 5 years 3 weeks
Thanks: 296 time(s)
Russian Federation


Жалкое подобие Кинга Даймонда. Не технически, а по вокалу и музыке. А техника и запись сейчас у каждой второй команды, так что цнности особой не представляют. 6/10


Thanks:
(1) Shadowman,
Go to the top of the page
  Insert nick Quick quote
+Quote Post
post Apr 9 2024, 19:20:22
Post #6

Девять Литров
*********
Group: Металариец
Posts: 914
Releases: 0
From: Vilnius
On Forums: 17 years 3 months
Thanks: 377 time(s)
Lithuania


Тоже так думал, пока не попал на их концерт.-понравились живьем весьма-Слушать можно ) - Неприменно и этот стоит заценить,-спасибо


Thanks:
Go to the top of the page
  Insert nick Quick quote
+Quote Post
post Apr 12 2024, 10:40:31
Post #7

Common dweller of hell
**************
Group: Металариец
Posts: 5,397
Releases: 12
From: Dnipro
On Forums: 15 years 10 months
Thanks: 2198 time(s)
Ukraine


ЦИТАТА(Aectan @ Apr 9 2024, 16:50:29) *
Жалкое подобие Кинга Даймонда.

Выражение "Жалкое подобие" подразумевает под собой что то очень отстойное, что не применимо к этой группе.
Go to the top of the page
  Insert nick Quick quote
+Quote Post
post Apr 16 2024, 01:56:26
Post #8

Совки, гулаги, дефициты
***********
Group: Металариец
Posts: 1,917
Releases: 0
From: Беларусь, Минск
On Forums: 16 years 10 months
Thanks: 950 time(s)
Belarus


Вроде бы и да, но при ближайшем рассмотрении нет. Это не хэви, а недо-блэк какой-то, ну в самом деле. А блэк лично я терпеть не могу.
Go to the top of the page
  Insert nick Quick quote
+Quote Post

Reply to this topicStart new topic
2 User(s) are reading this topic (2 Guests and 0 Anonymous Users)
0 Members:

 



- Lo-Fi Version Support form
Copyrights and abuse reports form
Time is now: 30th May 2024 - 20:01:09