Welcome Guest ( Log In | Register )

Объявления

* gmail.com упорно продолжает считать почту с нас "unsolicited" и отбивает в том числе и письма активации, поэтому просьба использовать альтернативные почтовые ящики.
------------
* gmail.com continues reject all mail from us as "unsolicited" (activation mails too) therefore please use alternate mail servers.

> Releases Upload / Добавление релизов

Добавить релиз тут / Click here to add release
Рекомендованные обменники / Recommended file shares

> Garu Pagrabs - Bara Gūstā (2024), Heavy Metal
post Apr 4 2024, 12:51:34
Post #1

Правь статус, ####!111
**************
Group: Металариец
Posts: 8,958
Releases: 7194
On Forums: 13 years 6 months
Thanks: 126844 time(s)
Italy


(IMG:https://metalarea.org/images/audiocovers/2024_Apr/acov_tid395013_thumb.jpg)

*Artist: Garu Pagrabs
*Album: Bara Gūstā
*Year: 2024
*Genre: Heavy Metal
*Country: Latvia (IMG:https://metalarea.org/forum/style_images/flags/Latvia.png)
*Format: mp3@CBR320kbps
*Size: 85MB

Tracklist:
1.Maniaks 03:37
2.Hidrauliskā Prese 04:45
3.Zem Ledus 02:44
4.Grāvis 04:58
5.Viņpus Laba Un Ļauna 05:45
6.Es Tak Latvietis 04:58
7.Pagrabā Ar Gariem 05:16
8.Galvenais Ir Pilna Bāka 04:09
******************************
Total playing time: 36:12


(IMG:https://metalarea.org/images/youtube.png)

Technical info
(IMG:https://metalarea.org/images/spectrogram/2024_Apr/828e975f943a9a935d76cfe30ec2bf4a.png)
Input File: 2.Hidrauliskā Prese.mp3
Channels : 2
Sample Rate : 44100
Precision : 16-bit
Duration : 00:04:45.22 = 12578334 samples = 21391.7 CDDA sectors
File Size : 11.7M
Bit Rate : 329k
Sample Encoding: MPEG audio (layer I, II or III)
Comments :
Title=Hidrauliskā Prese
Artist=Garu Pagrabs
Album=Bara Gūstā
Tracknumber=2/8
Year=2024
Discnumber=1/1



Register


Go to the top of the page
  Insert nick Quick quote
+Quote Post
 
Start new topic
Replies (1 - 1)
post Apr 5 2024, 07:53:45
Post #2

Друг Уточек
*****
Group: Металариец
Posts: 442
Releases: 65
From: Гексия
On Forums: 15 years 5 months
Thanks: 342 time(s)
Russian Federation


Вокалист поёт похоже на Яниса Гродумса из Līvi. На этом всё хорошее для меня у данной группы заканчивается, хотя не скажу что по музыке всё прямо плохо... нет... просто я такое звучание не люблю уж извините. Спасибо за ознакомление.
Go to the top of the page
  Insert nick Quick quote
+Quote Post

Reply to this topicStart new topic
1 User(s) are reading this topic (1 Guests and 0 Anonymous Users)
0 Members:

 



- Lo-Fi Version Support form
Copyrights and abuse reports form
Time is now: 29th May 2024 - 10:09:08