Welcome Guest ( Log In | Register )

Объявления

* gmail.com упорно продолжает считать почту с нас "unsolicited" и отбивает в том числе и письма активации, поэтому просьба использовать альтернативные почтовые ящики.
------------
* gmail.com continues reject all mail from us as "unsolicited" (activation mails too) therefore please use alternate mail servers.

> Releases Upload / Добавление релизов

Добавить релиз тут / Click here to add release
Рекомендованные обменники / Recommended file shares

> Ondfødt - Oldfodt [ep] (2024), Black Metal (D4)
post Apr 4 2024, 15:44:31
Post #1

Serial Uploader
Group Icon
Group: V.I.P
Posts: 42,638
Releases: 40702
From: Lithuania
On Forums: 15 years 11 months
Thanks: 521614 time(s)
Lithuania


(IMG:https://metalarea.org/images/audiocovers/2024_Apr/acov_tid395043_thumb.jpg)

*Artist: Ondfødt
*Album: Oldfodt [ep]
*Year: 2024
*Genre: Black Metal
*Country: Finland (IMG:https://metalarea.org/forum/style_images/flags/Finland.png)
*Format: mp3@CBR320kbps
*Size: 46MB

Tracklist:
1. Faensgyte 04:38
2. No ere jo Satan 02:02
3. Midnatt 04:53
4. Den sanna 04:16
5. Paradiset (Rauli Somerjoki cover) 03:25
******************************
Total playing time: 19:14


Preview 2


(IMG:https://metalarea.org/images/youtube.png)

Technical info
(IMG:https://metalarea.org/images/spectrogram/2024_Apr/a3d91ee01c0e6e5b864fb9a5748fe840.png)
Input File: 02 - No Ere Jo Satan.mp3
Channels : 2
Sample Rate : 44100
Precision : 16-bit
Duration : 00:02:02.00 = 5380200 samples = 9150 CDDA sectors
File Size : 5.25M
Bit Rate : 344k
Sample Encoding: MPEG audio (layer I, II or III)
Comments :
Title=No Ere Jo Satan
Artist=Ondfødt/Mathias "Vreth" Lillmåns
Album=Oldfodt
Tracknumber=2
Year=2024-04-05
Genre=Металл
Discnumber=1



Register


Go to the top of the page
  Insert nick Quick quote
+Quote Post
 
Start new topic
Replies (1 - 1)
post Apr 23 2024, 20:58:46
Post #2

Три Литра
***
Group: Завсегдатай
Posts: 298
Releases: 0
On Forums: 14 years 11 months
Thanks: 144 time(s)
Russian Federation


Вроде бы такого стрекочущего Блэка в Финляндии навалом, но слушается приятно.
Go to the top of the page
  Insert nick Quick quote
+Quote Post

Reply to this topicStart new topic
1 User(s) are reading this topic (1 Guests and 0 Anonymous Users)
0 Members:

 



- Lo-Fi Version Support form
Copyrights and abuse reports form
Time is now: 30th May 2024 - 19:46:17