Welcome Guest ( Log In | Register )

Объявления

* gmail.com упорно продолжает считать почту с нас "unsolicited" и отбивает в том числе и письма активации, поэтому просьба использовать альтернативные почтовые ящики.
------------
* gmail.com continues reject all mail from us as "unsolicited" (activation mails too) therefore please use alternate mail servers.

> Releases Upload / Добавление релизов

Добавить релиз тут / Click here to add release
Рекомендованные обменники / Recommended file shares

 
Reply to this topicStart new topic
> Merial - Prospector (2024), Death/Black Metal
post Apr 5 2024, 10:46:58
Post #1

Правь статус, ####!111
**************
Group: Металариец
Posts: 8,952
Releases: 7190
On Forums: 13 years 6 months
Thanks: 126741 time(s)
Italy


(IMG:https://metalarea.org/images/audiocovers/2024_Apr/acov_tid395094_thumb.jpg)

*Artist: Merial
*Album: Prospector
*Year: 2024
*Genre: Death/Black Metal
*Country: Armenia (IMG:https://metalarea.org/forum/style_images/flags/Armenia.png)
*Format: mp3@CBR320kbps
*Size: 85MB

Tracklist:
1.Jragamah / Ճրագամահ 04:21
2.The Great Mother 03:17
3.Prospector 03:58
4.Flesh Hegemon 03:17
5.His Tainted Tower 03:18
6.Bloodthirster 04:18
7.Son of Rot 03:57
8.Յառաջ Քան Զծագելն Արեգական 04:09
9.Something New Will Be Born 04:24
******************************
Total playing time: 34:59



Technical info
(IMG:https://metalarea.org/images/spectrogram/2024_Apr/eabf72c73a0c91e86bed89b6e1dfedaa.png)
Input File: 2.The Great Mother.mp3
Channels : 2
Sample Rate : 44100
Precision : 16-bit
Duration : 00:03:17.68 = 8717776 samples = 14826.1 CDDA sectors
File Size : 8.47M
Bit Rate : 343k
Sample Encoding: MPEG audio (layer I, II or III)
Comments :
Title=The Great Mother
Artist=Merial
Album=Prospector
Tracknumber=2/9
Year=2024
Discnumber=1/1



Register


Go to the top of the page
  Insert nick Quick quote
+Quote Post

Reply to this topicStart new topic
1 User(s) are reading this topic (1 Guests and 0 Anonymous Users)
0 Members:

 



- Lo-Fi Version Support form
Copyrights and abuse reports form
Time is now: 27th May 2024 - 23:05:02