Welcome Guest ( Log In | Register )

Объявления

* gmail.com упорно продолжает считать почту с нас "unsolicited" и отбивает в том числе и письма активации, поэтому просьба использовать альтернативные почтовые ящики.
------------
* gmail.com continues reject all mail from us as "unsolicited" (activation mails too) therefore please use alternate mail servers.

> Releases Upload / Добавление релизов

Добавить релиз тут / Click here to add release
Рекомендованные обменники / Recommended file shares

> Vikings Heart - Beyond The Sea (2024), Viking Metal
post Apr 5 2024, 14:11:00
Post #1

Правь статус, ####!111
**************
Group: Металариец
Posts: 8,968
Releases: 7206
On Forums: 13 years 6 months
Thanks: 126977 time(s)
Italy


(IMG:https://metalarea.org/images/audiocovers/2024_Apr/acov_tid395109_thumb.jpg)

*Artist: Vikings Heart
*Album: Beyond The Sea
*Year: 2024
*Genre: Viking Metal
*Country: Unknown (IMG:https://metalarea.org/forum/style_images/flags/Unknown.png)
*Format: mp3@CBR320kbps
*Size: 127MB

Tracklist:
01.Raven of Wisdom 05:40
02.Battle Cry 03:25
03.Tales Untold 03:59
04.Viking Thirst 03:59
05.Cry of the Wolves 04:41
06.Erik the Red 03:57
07.Mighty Sea 03:45
08.Flame in the Heart 06:17
09.Valkyries 04:56
10.Shieldmaiden 03:30
11.Fearless Hearts 04:00
12.Three Norns 04:29
******************************
Total playing time: 52:38

(IMG:https://metalarea.org/images/youtube.png)

Technical info
(IMG:https://metalarea.org/images/spectrogram/2024_Apr/fe3f0376aa983690a8c47f536ce0bea7.png)
Input File: 1.Raven of Wisdom.mp3
Channels : 2
Sample Rate : 44100
Precision : 16-bit
Duration : 00:05:40.08 = 14997704 samples = 25506.3 CDDA sectors
File Size : 14.2M
Bit Rate : 334k
Sample Encoding: MPEG audio (layer I, II or III)
Comments :
Title=Raven of Wisdom
Artist=Vikings Heart
Album=Beyond the Sea
Tracknumber=1/12
Year=2024
Discnumber=1/1



Register


Go to the top of the page
  Insert nick Quick quote
+Quote Post
 
Start new topic
Replies (1 - 2)
post Apr 5 2024, 16:19:31
Post #2

Мегаманьяк
***********
Group: Металариец
Posts: 1,825
Releases: 0
From: Russian Federation - St.Petersburg
On Forums: 15 years 2 months
Thanks: 524 time(s)
Russian Federation


Да ужж, тут прямо викинг играют и викингом погоняют! (IMG:style_emoticons/default/1488.gif) (IMG:style_emoticons/default/hmm.gif)


Thanks:
Go to the top of the page
  Insert nick Quick quote
+Quote Post
post Apr 9 2024, 14:50:47
Post #3

Common dweller of hell
**************
Group: Металариец
Posts: 5,397
Releases: 12
From: Dnipro
On Forums: 15 years 10 months
Thanks: 2198 time(s)
Ukraine


ЦИТАТА(Olrak @ Apr 5 2024, 18:19:31) *
Да ужж, тут прямо викинг играют и викингом погоняют! (IMG:style_emoticons/default/1488.gif) (IMG:style_emoticons/default/hmm.gif)

И викинги записывают и викинги слушают.
Go to the top of the page
  Insert nick Quick quote
+Quote Post

Reply to this topicStart new topic
1 User(s) are reading this topic (1 Guests and 0 Anonymous Users)
0 Members:

 



- Lo-Fi Version Support form
Copyrights and abuse reports form
Time is now: 30th May 2024 - 23:14:53