Welcome Guest ( Log In | Register )

Объявления

* gmail.com упорно продолжает считать почту с нас "unsolicited" и отбивает в том числе и письма активации, поэтому просьба использовать альтернативные почтовые ящики.
------------
* gmail.com continues reject all mail from us as "unsolicited" (activation mails too) therefore please use alternate mail servers.

> И неформату есть предел.

Рэп/хип-хоп/шансон/поп удаляются. Для них есть свои порталы.

> Toss 'n' Turn - Freestyle (1994), Hard Rock
post Apr 6 2024, 22:21:37
Post #1

Шесть Литров
******
Group: Металариец
Posts: 518
Releases: 12
On Forums: 12 years 3 weeks
Thanks: 473 time(s)
Russian Federation


(IMG:https://metalarea.org/images/audiocovers/2024_Apr/acov_tid395205_thumb.jpg)

*Artist: Toss 'n' Turn
*Album: Freestyle
*Year: 1994
*Genre: Hard Rock
*Country: Germany (IMG:https://metalarea.org/forum/style_images/flags/Germany.png)
*Format: mp3@CBR320kbps
*Size: 169MB

Tracklist:
1. How Do You Feel 4:44
2. Don't Lie To Me 3:53
3. Back To the Wall 4:30
4. Heart Growing Old 6:02
5. Confession 3:34
6. Hungry 5:39
7. In My Blood 4:04
8. Torture, Torture 4:59
9. All Night Sensation 5:05
10. Life (The Up's and Down's) 4:02
11. Stop Beggin' Me 4:34
12. One Night & a Heartache 4:03
13. Eternal Flame 4:53
14. Hidden Track 1:18
******************************
Total playing time: 1:01:20

Extended info
Lame 3.93.1


Technical info
(IMG:https://metalarea.org/images/spectrogram/2024_Apr/6e925f43216bf13f4ef075b1f5d9ef71.png)
Input File: 13. Eternal Flame.mp3
Channels : 2
Sample Rate : 44100
Precision : 16-bit
Duration : 00:03:54.31 = 10332851 samples = 17572.9 CDDA sectors
File Size : 9.37M
Bit Rate : 320k
Sample Encoding: MPEG audio (layer I, II or III)
Comments :
Title=Eternal Flame
Artist=Toss'N'Turn
Album=Freestyle
Tracknumber=13
Year=1994
Genre=Heavy Metal/Hard Rock/AOR



Register


Thanks:
(3) Grev, Wail, Xtohar,
Go to the top of the page
  Insert nick Quick quote
+Quote Post
 
Start new topic
Replies (1 - 1)
post Apr 13 2024, 18:52:46
Post #2

Литр
*
Group: Подсевший
Posts: 63
Releases: 0
From: Russia
On Forums: 15 years 9 months
Thanks: 30 time(s)
Russian Federation


Register


Thanks:
(1) Brann,
Go to the top of the page
  Insert nick Quick quote
+Quote Post

Reply to this topicStart new topic
1 User(s) are reading this topic (1 Guests and 0 Anonymous Users)
0 Members:

 



- Lo-Fi Version Support form
Copyrights and abuse reports form
Time is now: 13th June 2024 - 09:15:24