Welcome Guest ( Log In | Register )

Объявления

* gmail.com упорно продолжает считать почту с нас "unsolicited" и отбивает в том числе и письма активации, поэтому просьба использовать альтернативные почтовые ящики.
------------
* gmail.com continues reject all mail from us as "unsolicited" (activation mails too) therefore please use alternate mail servers.

> Releases Upload / Добавление релизов

Добавить релиз тут / Click here to add release
Рекомендованные обменники / Recommended file shares

> Demonslaught 666 - Endless Witchcraft (2024), Black/Speed Metal (D4)
post Apr 7 2024, 03:32:24
Post #1

Правь статус, ####!111
**************
Group: Металариец
Posts: 35,993
Releases: 26828
From: Г.Харьков
On Forums: 12 years 3 weeks
Thanks: 581860 time(s)
Ukraine


(IMG:https://metalarea.org/images/audiocovers/2024_Apr/acov_tid395216_thumb.jpg)

*Artist: Demonslaught 666
*Album: Endless Witchcraft
*Year: 2024
*Genre: Black/Speed Metal
*Country: China (IMG:https://metalarea.org/forum/style_images/flags/China.png)
*Format: mp3@CBR320kbps
*Size: 84MB

Tracklist:
1. Deadly Autumn 03:41
2. Witchcraft & Tempestuous Fire 05:38
3. Evil Hammer Force 03:48
4. Banshee 04:28
5. Phantom Witch 04:43
6. Unspeakable Evil 03:52
7. Endless Witchcraft 04:10
8. Eternity, Darkness & Damnation 06:18
******************************
Total playing time: 36:38




Extended info
Evilslaughter Guitars
See also: Ὁπλίτης (live), ex-Chemical Assault, ex-Blood of Teachers, ex-Corrosive Infection, ex-Death in the Swamp, ex-DeathKnell
A New Machine Drums (2022-present)
See also: ex-Avalanche
Paravoid Vocals, Bass (2022-present)
See also: Crater, Octolord



Technical info
(IMG:https://metalarea.org/images/spectrogram/2024_Apr/5524a6d73fa04bafba1de62a871e1408.png)
Input File: 05 - Phantom Witch.mp3
Channels : 2
Sample Rate : 44100
Precision : 16-bit
Duration : 00:04:43.39 = 12497587 samples = 21254.4 CDDA sectors
File Size : 11.4M
Bit Rate : 322k
Sample Encoding: MPEG audio (layer I, II or III)
Comments :
Title=Phantom Witch
Artist=Demonslaught 666
Album=Endless Witchcraft
Tracknumber=5/8
Year=2024



Register


Go to the top of the page
  Insert nick Quick quote
+Quote Post
 
Start new topic
Replies (1 - 4)
post Apr 7 2024, 15:39:13
Post #2

Друг Уточек
*****
Group: Металариец
Posts: 442
Releases: 65
From: Гексия
On Forums: 15 years 5 months
Thanks: 342 time(s)
Russian Federation


Ребята вы как-нибудь данные группы жанра Black/Speed отличаете ?! (вопрос риторический) я увы нет. очередная тарам-барам музыка да ещё и на инглише (родной не учили походу). Видимо просто не моё. Спасибо за ознакомление!
Go to the top of the page
  Insert nick Quick quote
+Quote Post
post Apr 7 2024, 15:55:25
Post #3

Group: Подсевший
Posts: 19
Releases: 0
On Forums: 4 years 9 months
Thanks: 14 time(s)
Armenia


flac version would be more than welcome! (IMG:style_emoticons/default/5.gif)
Go to the top of the page
  Insert nick Quick quote
+Quote Post
post Apr 11 2024, 20:54:50
Post #4

Добрейшей души Мегаманьяк
**************
Group: Металариец
Posts: 2,350
Releases: 0
From: Bashkortostan, Таптыҡ
On Forums: 16 years 3 months
Thanks: 1124 time(s)
Russian Federation


Нифильхеймообразненько. Китайское импортозамещение в действии. Нормальный башкотряс.

ЦИТАТА(Bloodline Christian @ Apr 7 2024, 17:39:13) *
Видимо просто не моё.

Канеш - не нраится - не слушай.



Thanks:
(1) DarkHorde,
Go to the top of the page
  Insert nick Quick quote
+Quote Post
post Apr 12 2024, 18:32:01
Post #5

Common dweller of hell
**************
Group: Металариец
Posts: 5,397
Releases: 12
From: Dnipro
On Forums: 15 years 10 months
Thanks: 2198 time(s)
Ukraine


ЦИТАТА(Bloodline Christian @ Apr 7 2024, 17:39:13) *
Ребята вы как-нибудь данные группы жанра Black/Speed отличаете ?!

Так у них на сайте так и написано black/speed metal (IMG:style_emoticons/default/bye.gif)
Go to the top of the page
  Insert nick Quick quote
+Quote Post

Reply to this topicStart new topic
2 User(s) are reading this topic (2 Guests and 0 Anonymous Users)
0 Members:

 



- Lo-Fi Version Support form
Copyrights and abuse reports form
Time is now: 30th May 2024 - 22:42:00