Welcome Guest ( Log In | Register )

Объявления

* gmail.com упорно продолжает считать почту с нас "unsolicited" и отбивает в том числе и письма активации, поэтому просьба использовать альтернативные почтовые ящики.
------------
* gmail.com continues reject all mail from us as "unsolicited" (activation mails too) therefore please use alternate mail servers.

> Releases Upload / Добавление релизов

Добавить релиз тут / Click here to add release
Рекомендованные обменники / Recommended file shares

> 出雲 - 出雲 (2024), Black Metal
post Apr 7 2024, 06:40:36
Post #1

Правь статус, ####!111
**************
Group: Металариец
Posts: 8,946
Releases: 7183
On Forums: 13 years 6 months
Thanks: 126561 time(s)
Italy


(IMG:https://metalarea.org/images/audiocovers/2024_Apr/acov_tid395222_thumb.jpg)

*Artist: 出雲
*Album: 出雲
*Year: 2024
*Genre: Black Metal
*Country: Japan (IMG:https://metalarea.org/forum/style_images/flags/Japan.png)
*Format: mp3@CBR320kbps
*Size: 76MB

Tracklist:
1.壱代 天之御中主神 01:05
2.弍代 高御產巣日神 03:21
3.参代 神產巣日神 04:25
4.肆代 宇摩志阿斯訶備比古遲神 05:11
5.伍代 天之常立神 08:58
6.陸代 國之常立神 04:37
7.漆代 豐雲野神 05:03
******************************
Total playing time: 32:40



Extended info
Asrar prod.
Exclusive for Metalarea
出雲=Izumo


Technical info
(IMG:https://metalarea.org/images/spectrogram/2024_Apr/94dccbee6bb779168ce62d8f1ef97286.png)
Input File: 出雲 - 出雲 - 02 弍代 高御產巣日神.mp3
Channels : 2
Sample Rate : 44100
Precision : 16-bit
Duration : 00:03:21.34 = 8878918 samples = 15100.2 CDDA sectors
File Size : 8.18M
Bit Rate : 325k
Sample Encoding: MPEG audio (layer I, II or III)
Comments :
Title=弍代 高御產巣日神
Artist=出雲
Album=出雲
Tracknumber=2
Year=2024



Register


Go to the top of the page
  Insert nick Quick quote
+Quote Post
 
Start new topic
Replies (1 - 3)
post Apr 7 2024, 13:06:00
Post #2

Мегаманьяк
***********
Group: Металариец
Posts: 1,890
Releases: 26
From: Москва
On Forums: 16 years 1 month
Thanks: 1343 time(s)
Antarctica


Неплохой олдскульный и классический блэк. Без изысков, экспериментов, никакой японщины. Всё строго по канонам - звук, риффы, вокал. Вместе с тем слушается хорошо и бодро, все 30 минут выдержаны в ровном ключе. Возможно хитовости здесь ноль целых ноль десятых, но свою долю внимания заслуживает, даже если только на одну прослушку.
А я оставлю, если иногда рандомом выпадет в плейлисте - приятно удивлюсь.


Thanks:
Go to the top of the page
  Insert nick Quick quote
+Quote Post
post Apr 8 2024, 07:47:37
Post #3

I hate you all
**************
Group: Металариец
Posts: 3,490
Releases: 127
From: Ukraine
On Forums: 17 years 2 weeks
Thanks: 8881 time(s)
Ukraine


Таки шо да, примечательный альбом. Довольно хорошая работа.


Thanks:
Go to the top of the page
  Insert nick Quick quote
+Quote Post
post May 23 2024, 00:51:48
Post #4

кручу наждак
**************
Group: Металариец
Posts: 6,552
Releases: 111
From: Самара
On Forums: 14 years 2 weeks
Thanks: 5111 time(s)
Russian Federation


Мбм с сыроватым звуком, что-то вроде греческого Necrohell, только с традиционной японской вежливостью.
Go to the top of the page
  Insert nick Quick quote
+Quote Post

Reply to this topicStart new topic
2 User(s) are reading this topic (2 Guests and 0 Anonymous Users)
0 Members:

 



- Lo-Fi Version Support form
Copyrights and abuse reports form
Time is now: 26th May 2024 - 08:57:44