Welcome Guest ( Log In | Register )

Объявления

* gmail.com упорно продолжает считать почту с нас "unsolicited" и отбивает в том числе и письма активации, поэтому просьба использовать альтернативные почтовые ящики.
------------
* gmail.com continues reject all mail from us as "unsolicited" (activation mails too) therefore please use alternate mail servers.

> Forum rules / Правила раздела

Here go releases which can't go to New releases forums due lack of information, stolen links or incorrect data and just founded in other sites links with minimum info. Reissue of this releases through Add release form with added/corrected data, info and own links highly welcomed.

Сюда уходят релизы, не пропущенные в основные релизные форумы по причинам отсутствия, недостаточности или неверности/некорректности сопровождающей информации, содержащие ссылки, указывающие на файлы, залитые не автором темы, а так же просто найденные где-то ссылки с минимумом информации. Переоформление тем отсюда через форму Добавления релиза с перезаливкой ссылок крайне приветствуется.

 
Reply to this topicStart new topic
> Night Slasher - Pit Of Hate [single] (2023), Black/Speed/Thrash Metal
post Apr 8 2024, 02:50:30
Post #1

_ - = # Thrashogolic # = - _ ... а давайте поржём все вместе
**************
Group: Металариец
Posts: 22,363
Releases: 4444
From: 404
On Forums: 13 years 11 months
Thanks: 29099 time(s)
Ukraine


(IMG:https://f4.bcbits.com/img/a0043366218_9.jpg)

*Artist: Night Slasher
*Album: Pit Of Hate [single]
*Year: 2023
*Genre: Black/Speed/Thrash Metal
*Country: Lithuania (IMG:https://metalarea.org/forum/style_images/flags/Lithuania.png)
*Format: mp3@CBR320kbps
*Size: 91MB

Tracklist:
1. Pit Of Hate 04:46
******************************
Total playing time: 04:46



Extended info
Formed in Vilnius back in 2014 under the name "Alcotopia" the band released their first and album "It Hits The Spot". After the first release the creative direction of the band had started morphing into something a lot darker. To match the intensity of the new material the band knew they had to take things to the next level and so "Night Slasher" was born.

First single from the upcoming Night Slasher - Night Slasher (2024)

Lyrics:

Exhaustion,
Discomfort,
Clouds vision,
Incapacitates the body.
It's feeding,
It's growing,
Leaching,
It's taking over.
All the fear and misery,
Combined,
Gave birth,
To thy twisted self.
Cold touch,
Round my neck,
It's grasping,
Obscuring breathing.

The beast with thirteen eyes,
It is reading my last rites,
Fuel the fires,
Inside the pit of hate.

Six hundred times,
Your image haunted me at night,
Recalling sixty acts of wickedness
That brought me to my knees,
Six times I've risen
To embrace this misery,
To purify my final self
And set thy essence free.

Disgusting,
Mutated,
Your flesh
is truly tainted,
Sanitize
the universe,
Of the disease
of one's existence.
Dominate the fear,
that declines
you the right
To take the final step,
Embrace
The flames
Of the seventh
Circle of hell.

The beast with thirteen eyes,
It is reading my last rites,
Fuel the fires,
Inside the pit of hate.

Six hundred times,
Your image haunted me at night,
Recalling sixty acts of wickedness
That brought me to my knees,
Six times I've risen
To embrace this misery,
To purify my final self
And set thy essence free.


released October 27, 2023


Technical info
(IMG:https://metalarea.org/images/spectrogram/2024_Apr/0827656fc5c7e1326cb49128ecca481d.png)
Input File: 01 - Pit Of Hate.mp3
Channels : 2
Sample Rate : 44100
Precision : 16-bit
Duration : 00:04:46.16 = 12619832 samples = 21462.3 CDDA sectors
File Size : 11.4M
Bit Rate : 320k
Sample Encoding: MPEG audio (layer I, II or III)
Comments :
Title=Pit Of Hate
Artist=Night Slasher (Ltu)
Album=Pit Of Hate (Single)
Tracknumber=1
Year=2023
Genre=9


Register


Thanks:
Go to the top of the page
  Insert nick Quick quote
+Quote Post

Reply to this topicStart new topic
2 User(s) are reading this topic (2 Guests and 0 Anonymous Users)
0 Members:

 



- Lo-Fi Version Support form
Copyrights and abuse reports form
Time is now: 21st May 2024 - 07:21:09