Welcome Guest ( Log In | Register )

Объявления

* gmail.com упорно продолжает считать почту с нас "unsolicited" и отбивает в том числе и письма активации, поэтому просьба использовать альтернативные почтовые ящики.
------------
* gmail.com continues reject all mail from us as "unsolicited" (activation mails too) therefore please use alternate mail servers.
> Replicant - Infinite Mortality (2024), Progressive Death Metal
post Apr 10 2024, 12:39:39
Post #1

Правь статус, ####!111
**************
Group: Металариец
Posts: 36,231
Releases: 27013
From: Г.Харьков
On Forums: 12 years 1 month
Thanks: 587116 time(s)
Ukraine


(IMG:https://metalarea.org/images/audiocovers/2024_Apr/acov_tid395333_thumb.jpg)

*Artist: Replicant
*Album: Infinite Mortality
*Year: 2024
*Genre: Progressive Death Metal
*Country: United States (IMG:https://metalarea.org/forum/style_images/flags/United%20States.png)
*Format: mp3@CBR320kbps
*Size: 110MB

Tracklist:
01. Acid Mirror
02. Shrine To The Incomprehensible
03. Orgasm Of Bereavement
04. Reciprocal Abandonment
05. SCN9A
06. Pain Enduring
07. Nekrotunnel
08. Dwelling On The Threshold
09. Planet Of Skin
******************************
Total playing time: 44:07



Extended info
Peter Lloyd Guitars (lead), Keyboards
Mike Gonçalves Vocals, Bass
James Applegate Drums
Itay Keren Guitars, Vocals



Technical info
(IMG:https://metalarea.org/images/spectrogram/2024_Apr/bfa5814da2d723141d5180c787f0d8bf.png)
Input File: REPLICANT - Infinite Mortality - 09 Planet of Skin.mp3
Channels : 2
Sample Rate : 44100
Precision : 16-bit
Duration : 00:09:11.08 = 24302760 samples = 41331.2 CDDA sectors
File Size : 22.2M
Bit Rate : 323k
Sample Encoding: MPEG audio (layer I, II or III)
Comments :
Title=Planet of Skin
Artist=Replicant
Album=Infinite Mortality
Tracknumber=9
Year=2024



Register


Go to the top of the page
  Insert nick Quick quote
+Quote Post
 
Start new topic
Replies (1 - 4)
post Apr 10 2024, 12:59:58
Post #2

Правь статус, ####!111
**************
Group: Металариец
Posts: 36,231
Releases: 27013
From: Г.Харьков
On Forums: 12 years 1 month
Thanks: 587116 time(s)
Ukraine


FLAC (Tracks) 586 mb
Register


Go to the top of the page
  Insert nick Quick quote
+Quote Post
post May 30 2024, 12:36:16
Post #3

Правь статус, ####!111
**************
Group: Металариец
Posts: 4,849
Releases: 29
From: Holland
On Forums: 17 years 11 months
Thanks: 1959 time(s)
Netherlands


Без преувеличения - альбом года. Еще когда синглы заценивал, просто 0фигевал как тело пускалось впляс.

А альбом целиком просто невероятный. На нем прекрасно все. Он размеренный, размазывающий, с шикарнейшим звуком, и просто невероятным исполнением. Каждый момент сделан со вкусом. Каждый качовый ритм снабжен шикарными фишечками ритм-секции, чтобы раскачать еще больше.
Я просто в шоке от мощи этого альбома.

Прошлые были не такими. Хорошими, но чего-то не хватало группе.

P.S. Вживую играют также зверски.


Thanks:
Go to the top of the page
  Insert nick Quick quote
+Quote Post
post Jun 3 2024, 11:46:17
Post #4

Маньяк
**********
Group: Металариец
Posts: 1,210
Releases: 0
From: Нижний Новгород
On Forums: 17 years 11 months
Thanks: 479 time(s)
Russian Federation


Слушал, никакой гениальности не обнаружил.
Но, да, релиз крепкий, но без откровений.
При-CORE-нный (рванина и атмосфера) "техно-дэт". Этакое, звуковое пятно ... нет, всё понятно, но шо конкретно (с) ... обычный модерновый релиз: пока слушаешь вроде бы и хорошо, а перестал - забыл через пару минут, что он был.
Go to the top of the page
  Insert nick Quick quote
+Quote Post
post Jun 11 2024, 08:12:46
Post #5

Маньяк
**********
Group: Металариец
Posts: 1,301
Releases: 0
From: Isla de Margarita, Venezuela
On Forums: 5 years 5 months
Thanks: 402 time(s)
Venezuela


Dissonant DM + Deathcore

Good album
Go to the top of the page
  Insert nick Quick quote
+Quote Post

Reply to this topicStart new topic
2 User(s) are reading this topic (2 Guests and 0 Anonymous Users)
0 Members:

 



- Lo-Fi Version Support form
Copyrights and abuse reports form
Time is now: 23rd June 2024 - 02:47:36