Welcome Guest ( Log In | Register )

Объявления

* gmail.com упорно продолжает считать почту с нас "unsolicited" и отбивает в том числе и письма активации, поэтому просьба использовать альтернативные почтовые ящики.
------------
* gmail.com continues reject all mail from us as "unsolicited" (activation mails too) therefore please use alternate mail servers.

> Forum rules / Правила раздела

Here go releases which can't go to New releases forums due lack of information, stolen links or incorrect data and just founded in other sites links with minimum info. Reissue of this releases through Add release form with added/corrected data, info and own links highly welcomed.

Сюда уходят релизы, не пропущенные в основные релизные форумы по причинам отсутствия, недостаточности или неверности/некорректности сопровождающей информации, содержащие ссылки, указывающие на файлы, залитые не автором темы, а так же просто найденные где-то ссылки с минимумом информации. Переоформление тем отсюда через форму Добавления релиза с перезаливкой ссылок крайне приветствуется.

 
Reply to this topicStart new topic
> Miss May I - Apologies Are For The Weak (2009)-UNOFFICIAL REMASTER - 320kbps (2009), Metalcore
post Apr 11 2024, 01:41:28
Post #1

Group: Дух
Posts: 4
Releases: 0
On Forums: 4 years 11 months
Thanks: 1 time(s)
United States


(IMG:https://metalarea.org/images/audiocovers/2024_Apr/acov_tid395356_thumb.jpg)

*Artist: Miss May I - Apologies Are For The Weak (2009)-UNOFFICIAL REMASTER
*Album: 320kbps
*Year: 2009
*Genre: Metalcore
*Country: United States (IMG:https://metalarea.org/forum/style_images/flags/United%20States.png)
*Format: mp3@CBR320kbps
*Size: 72MB

Tracklist:
This is my Unofficial Remaster of this fantastic album. The original album is very quiet and sounds terrible compared to modern releases. So I just edited it to be at a more modern LUFS value, using Flatline by Submission Audio. Now it sounds like it should. Enjoy.


1. A Dance With Aera Cura
2. Architect
3. Not Our Tomorrow
4. Arms Of The Messiah
5. Apologies Are For The Weak
6. Harlots Breath
7. Tides
8. Blessing With A Curse
9. Porcelain Wings
10. Forgive And Forget
******************************
Total playing time: 34:18

Technical info
(IMG:https://metalarea.org/images/spectrogram/2024_Apr/13ef2670633839d26029af3417ef5615.png)
Input File: 01 A Dance With Aera Cura-Audio Remixes.mp3
Channels : 2
Sample Rate : 44100
Precision : 16-bit
Duration : 00:03:19.81 = 8811621 samples = 14985.8 CDDA sectors
File Size : 8.58M
Bit Rate : 344k
Sample Encoding: MPEG audio (layer I, II or III)
Comments :
Title=A Dance With Aera Cura
Artist=Miss May I
Album=Apologies Are For The Weak
Tracknumber=1
Year=2009
Genre=Metalcore



Register
Go to the top of the page
  Insert nick Quick quote
+Quote Post

Reply to this topicStart new topic
1 User(s) are reading this topic (1 Guests and 0 Anonymous Users)
0 Members:

 



- Lo-Fi Version Support form
Copyrights and abuse reports form
Time is now: 21st May 2024 - 09:17:19