Welcome Guest ( Log In | Register )

Объявления

* gmail.com упорно продолжает считать почту с нас "unsolicited" и отбивает в том числе и письма активации, поэтому просьба использовать альтернативные почтовые ящики.
------------
* gmail.com continues reject all mail from us as "unsolicited" (activation mails too) therefore please use alternate mail servers.

> И неформату есть предел.

Рэп/хип-хоп/шансон/поп удаляются. Для них есть свои порталы.

 
Reply to this topicStart new topic
> BlackRain - Hot Rock Time Machine (2024), Glam/Hard Rock
post Apr 12 2024, 18:13:01
Post #1

Правь статус, ####!111
**************
Group: Металариец
Posts: 7,559
Releases: 6913
From: Одесса
On Forums: 15 years 11 months
Thanks: 80537 time(s)
Ukraine


(IMG:https://metalarea.org/images/audiocovers/2024_Apr/acov_tid395466_thumb.jpg)

*Artist: BlackRain
*Album: Hot Rock Time Machine
*Year: 2024
*Genre: Glam/Hard Rock
*Country: France (IMG:https://metalarea.org/forum/style_images/flags/France.png)
*Format: mp3@CBR320kbps
*Size: 90MB

Tracklist:
1. Overloaded
2. Baby Shot Me Down
3. Wild, Wild, Wild
4. She's in Love
5. Nobody But You
6. Dancing on Fire
7. Young Blood
8. Shining Down On You
9. Revolution
10. Dead Boy
******************************
Total playing time: 37:57

Extended info
Line - up:

Max 2 - Guitars
Swan - Vocals, Guitars
Heinrich - Bass
Franky Costanza - Drums (Blazing War Machine, Carbonic Fields, Emma-O, Lilith's Black Lotus, Naraka, Les Tambours du Bronx, Vise Versa, ex-Avatar of Hate, ex-Dagoba, ex-Imperial, ex-Outburst, ex-Parallel Minds)



Technical info
(IMG:https://metalarea.org/images/spectrogram/2024_Apr/4d6d4457b1ddc525b72b4ae9bf9bc7aa.png)
Input File: 02. Baby Shot Me Down.mp3
Channels : 2
Sample Rate : 44100
Precision : 16-bit
Duration : 00:03:54.18 = 10327206 samples = 17563.3 CDDA sectors
File Size : 9.46M
Bit Rate : 323k
Sample Encoding: MPEG audio (layer I, II or III)
Comments :
Title=Baby Shot Me Down
Artist=BlackRain
Album=Hot Rock Time Machine
Tracknumber=2
Year=2024
Genre=Glam | Hard Rock



Register


Go to the top of the page
  Insert nick Quick quote
+Quote Post

Reply to this topicStart new topic
1 User(s) are reading this topic (1 Guests and 0 Anonymous Users)
0 Members:

 



- Lo-Fi Version Support form
Copyrights and abuse reports form
Time is now: 25th May 2024 - 18:54:03