Welcome Guest ( Log In | Register )

Объявления

* gmail.com упорно продолжает считать почту с нас "unsolicited" и отбивает в том числе и письма активации, поэтому просьба использовать альтернативные почтовые ящики.
------------
* gmail.com continues reject all mail from us as "unsolicited" (activation mails too) therefore please use alternate mail servers.

> Releases Upload / Добавление релизов

Добавить релиз тут / Click here to add release
Рекомендованные обменники / Recommended file shares

> Nimbifer - Der B​ö​se Geist (2024), Raw Black Metal (D5)
post Apr 13 2024, 13:54:31
Post #1

Правь статус, ####!111
**************
Group: Металариец
Posts: 2,749
Releases: 2261
From: Praha
On Forums: 10 years 1 month
Thanks: 63810 time(s)
Czech Republic


(IMG:https://metalarea.org/images/audiocovers/2024_Apr/acov_tid395504_thumb.jpg)

*Artist: Nimbifer
*Album: Der B​ö​se Geist
*Year: 2024
*Genre: Raw Black Metal
*Country: Germany (IMG:https://metalarea.org/forum/style_images/flags/Germany.png)
*Format: mp3@CBR320kbps
*Size: 92MB

Tracklist:
1. Der Wind 04:52
2. Hatz 03:56
3. - 01:11
4. Schlangenmaul 05:24
5. Ruinen 04:54
6. Täuschung 04:53
7. Auf endlosen Pfaden und haltlosen Strömen 07:54
8. Der böse Geist 03:23
******************************
Total playing time: 36:27



Technical info
(IMG:https://metalarea.org/images/spectrogram/2024_Apr/4bbb8ddbc8b008dce97951929e4f095d.png)
Input File: NIMBIFER - Der böse Geist - 02 Hatz.flac
Channels : 2
Sample Rate : 44100
Precision : 24-bit
Duration : 00:03:56.00 = 10407600 samples = 17700 CDDA sectors
File Size : 46.8M
Bit Rate : 1.59M
Sample Encoding: 24-bit FLAC
Comments :
TITLE=Hatz
ARTIST=NIMBIFER
DATE=2024
COMMENT=Visit https://nimbifer.bandcamp.com
ALBUM=Der böse Geist
TRACKNUMBER=2
ALBUMARTIST=NIMBIFER



Register


Go to the top of the page
  Insert nick Quick quote
+Quote Post
 
Start new topic
Replies (1 - 2)
post Apr 13 2024, 18:40:57
Post #2

кручу наждак
**************
Group: Металариец
Posts: 6,554
Releases: 111
From: Самара
On Forums: 14 years 2 weeks
Thanks: 5112 time(s)
Russian Federation


Где тут рав? Обычный блэк с грязноватым звуком.
Go to the top of the page
  Insert nick Quick quote
+Quote Post
post Apr 13 2024, 19:02:20
Post #3

Правь статус, ####!111
**************
Group: Металариец
Posts: 2,028
Releases: 0
From: Canada
On Forums: 11 years 6 months
Thanks: 1457 time(s)
Canada


FLAC tracks?
Go to the top of the page
  Insert nick Quick quote
+Quote Post

Reply to this topicStart new topic
2 User(s) are reading this topic (2 Guests and 0 Anonymous Users)
0 Members:

 



- Lo-Fi Version Support form
Copyrights and abuse reports form
Time is now: 27th May 2024 - 22:17:21