Welcome Guest ( Log In | Register )

Объявления

* gmail.com упорно продолжает считать почту с нас "unsolicited" и отбивает в том числе и письма активации, поэтому просьба использовать альтернативные почтовые ящики.
------------
* gmail.com continues reject all mail from us as "unsolicited" (activation mails too) therefore please use alternate mail servers.

> Releases Upload / Добавление релизов

Добавить релиз тут / Click here to add release
Рекомендованные обменники / Recommended file shares

> Bad Ömen - Salt The Earth (2024), Death/Thrash Metal (D4)
post Apr 13 2024, 13:58:04
Post #1

Правь статус, ####!111
**************
Group: Металариец
Posts: 8,952
Releases: 7190
On Forums: 13 years 6 months
Thanks: 126741 time(s)
Italy


(IMG:https://metalarea.org/images/audiocovers/2024_Apr/acov_tid395505_thumb.jpg)

*Artist: Bad Ömen
*Album: Salt The Earth
*Year: 2024
*Genre: Death/Thrash Metal
*Country: United States (IMG:https://metalarea.org/forum/style_images/flags/United%20States.png)
*Format: mp3@CBR320kbps
*Size: 80MB

Tracklist:
01.This Is Murder 03:40
02.As the Hooks Dig In 04:43
03.Graveyard of the Empires 05:32
04.Salt the Earth 06:41
05.Death from Above 05:54
06.Inferno 04:41
07.Hate from a Distance 03:39
******************************
Total playing time: 34:50

(IMG:https://metalarea.org/images/youtube.png)

Technical info
(IMG:https://metalarea.org/images/spectrogram/2024_Apr/500aa20de19bdb68eac0cb1ff13e4a5f.png)
Input File: 2.As the Hooks Dig In.mp3
Channels : 2
Sample Rate : 44100
Precision : 16-bit
Duration : 00:04:42.90 = 12475802 samples = 21217.4 CDDA sectors
File Size : 11.6M
Bit Rate : 329k
Sample Encoding: MPEG audio (layer I, II or III)
Comments :
Title=As the Hooks Dig In
Artist=Bad Ömen
Album=Salt the Earth
Tracknumber=2/7
Year=2024
Discnumber=1/1



Register


Go to the top of the page
  Insert nick Quick quote
+Quote Post
 
Start new topic
Replies (1 - 1)
post Apr 18 2024, 09:38:10
Post #2

hearer & reader
**************
Group: Металариец
Posts: 10,927
Releases: 234
From: Moscow
On Forums: 16 years 8 months
Thanks: 13674 time(s)
Russian Federation


Go to the top of the page
  Insert nick Quick quote
+Quote Post

Reply to this topicStart new topic
1 User(s) are reading this topic (1 Guests and 0 Anonymous Users)
0 Members:

 



- Lo-Fi Version Support form
Copyrights and abuse reports form
Time is now: 27th May 2024 - 23:01:01