Welcome Guest ( Log In | Register )

Объявления

* gmail.com упорно продолжает считать почту с нас "unsolicited" и отбивает в том числе и письма активации, поэтому просьба использовать альтернативные почтовые ящики.
------------
* gmail.com continues reject all mail from us as "unsolicited" (activation mails too) therefore please use alternate mail servers.

> Releases Upload / Добавление релизов

Добавить релиз тут / Click here to add release
Рекомендованные обменники / Recommended file shares

 
Reply to this topicStart new topic
> Obé De Prata - Iniciação [ep] (2024), Black Metal
post Apr 13 2024, 14:05:51
Post #1

Правь статус, ####!111
**************
Group: Металариец
Posts: 8,952
Releases: 7190
On Forums: 13 years 6 months
Thanks: 126742 time(s)
Italy


(IMG:https://metalarea.org/images/audiocovers/2024_Apr/acov_tid395508_thumb.jpg)

*Artist: Obé De Prata
*Album: Iniciação [ep]
*Year: 2024
*Genre: Black Metal
*Country: Brazil (IMG:https://metalarea.org/forum/style_images/flags/Brazil.png)
*Format: mp3@CBR320kbps
*Size: 59MB

Tracklist:
1.Intro : Exu Consagrou 00:59
2.Obé de Prata 03:49
3.Firmou Iniciação 03:46
4.Força Primordial 03:15
5.Gargalhada Infernal 02:34
6.Rainhas da Noite 03:15
7.O Kimbanda 03:20
8.Quimbanda Black Metal 02:42
9.Outro : Firma Ponto na Quimbanda 01:12
******************************
Total playing time: 24:52

(IMG:https://metalarea.org/images/youtube.png)

Technical info
(IMG:https://metalarea.org/images/spectrogram/2024_Apr/7fd2a4cf29669fd8080ed85d0708de19.png)
Input File: 8.Quimbanda Black Metal.mp3
Channels : 2
Sample Rate : 44100
Precision : 16-bit
Duration : 00:02:43.02 = 7189006 samples = 12226.2 CDDA sectors
File Size : 6.80M
Bit Rate : 334k
Sample Encoding: MPEG audio (layer I, II or III)
Comments :
Title=Quimbanda Black Metal
Artist=Obé de Prata
Album=Iniciação
Tracknumber=8/9
Year=2024
Discnumber=1/1



Register


Go to the top of the page
  Insert nick Quick quote
+Quote Post

Reply to this topicStart new topic
1 User(s) are reading this topic (1 Guests and 0 Anonymous Users)
0 Members:

 



- Lo-Fi Version Support form
Copyrights and abuse reports form
Time is now: 27th May 2024 - 23:48:30