Welcome Guest ( Log In | Register )

Объявления

* gmail.com упорно продолжает считать почту с нас "unsolicited" и отбивает в том числе и письма активации, поэтому просьба использовать альтернативные почтовые ящики.
------------
* gmail.com continues reject all mail from us as "unsolicited" (activation mails too) therefore please use alternate mail servers.

> Releases Upload / Добавление релизов

Добавить релиз тут / Click here to add release
Рекомендованные обменники / Recommended file shares

 
Reply to this topicStart new topic
> Unjustice - Apathy Disease [ep] (2023), Thrash Metal (D5)
post Apr 13 2024, 14:08:09
Post #1

Правь статус, 616
**************
Group: Металариец
Posts: 10,768
Releases: 8771
From: 55°35’N 38°08’E
On Forums: 15 years 10 months
Thanks: 155996 time(s)
Russian Federation


(IMG:https://metalarea.org/images/audiocovers/2024_Apr/acov_tid395509_thumb.jpg)

*Artist: Unjustice
*Album: Apathy Disease [ep]
*Year: 2023
*Genre: Thrash Metal
*Country: Chile (IMG:https://metalarea.org/forum/style_images/flags/Chile.png)
*Format: mp3@CBR320kbps
*Size: 41MB

Tracklist:
1.Resistance 04:39
2.Evolutionary Decadence 02:53
3.Owners Of Our Hate 05:00
4.Night Prowler 04:52
******************************
Total playing time: 17:24



(IMG:https://metalarea.org/images/youtube.png)

Technical info
(IMG:https://metalarea.org/images/spectrogram/2024_Apr/d02e666317e511366581277b54a5b64e.png)
Input File: 01 Resistance.mp3
Channels : 2
Sample Rate : 44100
Precision : 16-bit
Duration : 00:04:39.08 = 12307604 samples = 20931.3 CDDA sectors
File Size : 11.3M
Bit Rate : 323k
Sample Encoding: MPEG audio (layer I, II or III)
Comments :
Title=Resistance
Artist=Unjustice
Album=Apathy Disease
Tracknumber=1/4
Year=2023
Genre=Thrash Metal
Discnumber=1/1



Register


Go to the top of the page
  Insert nick Quick quote
+Quote Post

Reply to this topicStart new topic
1 User(s) are reading this topic (1 Guests and 0 Anonymous Users)
0 Members:

 



- Lo-Fi Version Support form
Copyrights and abuse reports form
Time is now: 27th May 2024 - 23:58:35