Welcome Guest ( Log In | Register )

Объявления

* gmail.com упорно продолжает считать почту с нас "unsolicited" и отбивает в том числе и письма активации, поэтому просьба использовать альтернативные почтовые ящики.
------------
* gmail.com continues reject all mail from us as "unsolicited" (activation mails too) therefore please use alternate mail servers.

> Releases Upload / Добавление релизов

Добавить релиз тут / Click here to add release
Рекомендованные обменники / Recommended file shares

 
Reply to this topicStart new topic
> Algaroth - The Life Beneath [ep] (2019), Death/Black/Groove Metal
post Apr 13 2024, 14:30:32
Post #1

funeral doom fan
Group Icon
Group: S-moderation team
Posts: 5,881
Releases: 3524
From: Ростов-на-Дону
On Forums: 18 years 4 months
Thanks: 64762 time(s)
Russian Federation


(IMG:https://metalarea.org/images/audiocovers/2024_Apr/acov_tid395513_thumb.jpg)

*Artist: Algaroth
*Album: The Life Beneath [ep]
*Year: 2019
*Genre: Death/Black/Groove Metal
*Country: Australia (IMG:https://metalarea.org/forum/style_images/flags/Australia.png)
*Format: mp3@CBR320kbps
*Size: 66MB

Tracklist:
1. Spoon Fed the Flower 07:19
2. Kintsugi on the Bones 04:53
3. Spiralling Down the Spur 09:40
******************************
Total playing time: 21:52



Extended info
4. Spiralling Down The Spur (Radio Edit)


Technical info
(IMG:https://metalarea.org/images/spectrogram/2024_Apr/062e9f40f9cc4926c7a1bd439ea14042.png)
Input File: 01 - Spoon Fed The Flower.mp3
Channels : 2
Sample Rate : 44100
Precision : 16-bit
Duration : 00:07:19.51 = 19382303 samples = 32963.1 CDDA sectors
File Size : 18.5M
Bit Rate : 336k
Sample Encoding: MPEG audio (layer I, II or III)
Comments :
Title=Spoon Fed The Flower
Artist=Algaroth
Album=The Life Beneath
Tracknumber=01
Year=2019
Genre=Metal



Register


Thanks:
Go to the top of the page
  Insert nick Quick quote
+Quote Post

Reply to this topicStart new topic
2 User(s) are reading this topic (2 Guests and 0 Anonymous Users)
0 Members:

 



- Lo-Fi Version Support form
Copyrights and abuse reports form
Time is now: 27th May 2024 - 23:12:14