Welcome Guest ( Log In | Register )

Объявления

* gmail.com упорно продолжает считать почту с нас "unsolicited" и отбивает в том числе и письма активации, поэтому просьба использовать альтернативные почтовые ящики.
------------
* gmail.com continues reject all mail from us as "unsolicited" (activation mails too) therefore please use alternate mail servers.

> Releases Upload / Добавление релизов

Добавить релиз тут / Click here to add release
Рекомендованные обменники / Recommended file shares

 
Reply to this topicStart new topic
> Amongst The Dead Things - Hold Out Your Bleeding Heart To The Almighty Satan (2016), Black/Doom Metal
post Apr 13 2024, 14:31:04
Post #1

funeral doom fan
Group Icon
Group: S-moderation team
Posts: 5,881
Releases: 3524
From: Ростов-на-Дону
On Forums: 18 years 4 months
Thanks: 64758 time(s)
Russian Federation


(IMG:https://metalarea.org/images/audiocovers/2024_Apr/acov_tid395515_thumb.jpg)

*Artist: Amongst The Dead Things
*Album: Hold Out Your Bleeding Heart To The Almighty Satan
*Year: 2016
*Genre: Black/Doom Metal
*Country: Australia (IMG:https://metalarea.org/forum/style_images/flags/Australia.png)
*Format: mp3@CBR320kbps
*Size: 73MB

Tracklist:
1. The Ultimate Sacrifice 06:36
2. The Feast of Azazel 03:57
3. Fucking the Bloody Cross 04:34
4. Hold Out Your Bleeding Heart to the Almighty Satan 03:14
5. Grave Robber 04:58
6. Black Sabbath (Black Sabbath cover) 06:13
******************************
Total playing time: 29:32



Technical info
(IMG:https://metalarea.org/images/spectrogram/2024_Apr/8c4bc0b2b67c45b08ce0a54360a54a66.png)
Input File: 02 - The Feast Of Azazel.mp3
Channels : 2
Sample Rate : 44100
Precision : 16-bit
Duration : 00:03:57.16 = 10458536 samples = 17786.6 CDDA sectors
File Size : 9.64M
Bit Rate : 325k
Sample Encoding: MPEG audio (layer I, II or III)
Comments :
Title=The Feast Of Azazel
Artist=Amongst The Dead Things
Album=Hold Out Your Bleeding Heart To The Almighty Satan
Tracknumber=02
Year=2016
Genre=Metal
Discnumber=1



Register


Go to the top of the page
  Insert nick Quick quote
+Quote Post

Reply to this topicStart new topic
1 User(s) are reading this topic (1 Guests and 0 Anonymous Users)
0 Members:

 



- Lo-Fi Version Support form
Copyrights and abuse reports form
Time is now: 27th May 2024 - 22:01:57