Welcome Guest ( Log In | Register )

Объявления

* gmail.com упорно продолжает считать почту с нас "unsolicited" и отбивает в том числе и письма активации, поэтому просьба использовать альтернативные почтовые ящики.
------------
* gmail.com continues reject all mail from us as "unsolicited" (activation mails too) therefore please use alternate mail servers.

> Releases Upload / Добавление релизов

Добавить релиз тут / Click here to add release
Рекомендованные обменники / Recommended file shares

 
Reply to this topicStart new topic
> Blackhelm - II - Grand Ruinous [ep] (2016), Melodic Death/Black Metal
post Apr 13 2024, 14:31:56
Post #1

funeral doom fan
Group Icon
Group: S-moderation team
Posts: 5,881
Releases: 3524
From: Ростов-на-Дону
On Forums: 18 years 4 months
Thanks: 64758 time(s)
Russian Federation


(IMG:https://metalarea.org/images/audiocovers/2024_Apr/acov_tid395518_thumb.jpg)

*Artist: Blackhelm
*Album: II - Grand Ruinous [ep]
*Year: 2016
*Genre: Melodic Death/Black Metal
*Country: Australia (IMG:https://metalarea.org/forum/style_images/flags/Australia.png)
*Format: mp3@CBR320kbps
*Size: 44MB

Tracklist:
1. Gateway to Extinction 04:41
2. Grand Ruinous 04:49
3. Fathomless 05:21
4. Predatorial Ancestry 03:37
******************************
Total playing time: 18:28



Technical info
(IMG:https://metalarea.org/images/spectrogram/2024_Apr/d8a94b0b8b5270ac28a4ce8b7eaa8335.png)
Input File: 01 - Gateway To Extinction.mp3
Channels : 2
Sample Rate : 44100
Precision : 16-bit
Duration : 00:04:41.17 = 12399641 samples = 21087.8 CDDA sectors
File Size : 11.6M
Bit Rate : 331k
Sample Encoding: MPEG audio (layer I, II or III)
Comments :
Title=Gateway To Extinction
Artist=Blackhelm
Album=II - Grand Ruinous
Tracknumber=01
Year=2016
Genre=Alternative & Indie



Register


Thanks:
Go to the top of the page
  Insert nick Quick quote
+Quote Post

Reply to this topicStart new topic
1 User(s) are reading this topic (1 Guests and 0 Anonymous Users)
0 Members:

 



- Lo-Fi Version Support form
Copyrights and abuse reports form
Time is now: 27th May 2024 - 22:46:17