Welcome Guest ( Log In | Register )

Объявления

* gmail.com упорно продолжает считать почту с нас "unsolicited" и отбивает в том числе и письма активации, поэтому просьба использовать альтернативные почтовые ящики.
------------
* gmail.com continues reject all mail from us as "unsolicited" (activation mails too) therefore please use alternate mail servers.

> Releases Upload / Добавление релизов

Добавить релиз тут / Click here to add release
Рекомендованные обменники / Recommended file shares

> Bleakwood - Solypsis (2017), Black Metal
post Apr 13 2024, 14:32:13
Post #1

funeral doom fan
Group Icon
Group: S-moderation team
Posts: 5,881
Releases: 3524
From: Ростов-на-Дону
On Forums: 18 years 4 months
Thanks: 64759 time(s)
Russian Federation


(IMG:https://metalarea.org/images/audiocovers/2024_Apr/acov_tid395519_thumb.jpg)

*Artist: Bleakwood
*Album: Solypsis
*Year: 2017
*Genre: Black Metal
*Country: Australia (IMG:https://metalarea.org/forum/style_images/flags/Australia.png)
*Format: mp3@CBR320kbps
*Size: 92MB

Tracklist:
1. Narthex 04:08
2. Compilers 04:14
3. Phrenograph 03:38
4. Locus of Percept 05:37
5. Otherness to Purity 05:11
6. Ex Officio 03:24
7. Précis 05:33
8. Kohen Gadol 06:00
******************************
Total playing time: 37:45



Technical info
(IMG:https://metalarea.org/images/spectrogram/2024_Apr/15c9e5e333644c355da037a4b1e4ab74.png)
Input File: 01 - Narthex.mp3
Channels : 2
Sample Rate : 44100
Precision : 16-bit
Duration : 00:04:08.86 = 10974550 samples = 18664.2 CDDA sectors
File Size : 10.6M
Bit Rate : 342k
Sample Encoding: MPEG audio (layer I, II or III)
Comments :
Title=Narthex
Artist=Bleakwood
Album=Solypsis
Tracknumber=01
Year=2017
Genre=Metal



Register


Go to the top of the page
  Insert nick Quick quote
+Quote Post
 
Start new topic
Replies (1 - 1)
post Apr 13 2024, 14:55:31
Post #2

a caress of pale light
**************
Group: Металариец
Posts: 8,659
Releases: 13
On Forums: 14 years 6 months
Thanks: 4440 time(s)
Unknown


Уж думал Псков разродился.
Go to the top of the page
  Insert nick Quick quote
+Quote Post

Reply to this topicStart new topic
1 User(s) are reading this topic (1 Guests and 0 Anonymous Users)
0 Members:

 



- Lo-Fi Version Support form
Copyrights and abuse reports form
Time is now: 27th May 2024 - 22:55:14