Welcome Guest ( Log In | Register )

Объявления

* gmail.com упорно продолжает считать почту с нас "unsolicited" и отбивает в том числе и письма активации, поэтому просьба использовать альтернативные почтовые ящики.
------------
* gmail.com continues reject all mail from us as "unsolicited" (activation mails too) therefore please use alternate mail servers.

> Releases Upload / Добавление релизов

Добавить релиз тут / Click here to add release
Рекомендованные обменники / Recommended file shares

 
Reply to this topicStart new topic
> Brethren - Effigy [ep] (2019), Black Metal
post Apr 13 2024, 14:32:30
Post #1

funeral doom fan
Group Icon
Group: S-moderation team
Posts: 5,881
Releases: 3524
From: Ростов-на-Дону
On Forums: 18 years 4 months
Thanks: 64758 time(s)
Russian Federation


(IMG:https://metalarea.org/images/audiocovers/2024_Apr/acov_tid395520_thumb.jpg)

*Artist: Brethren
*Album: Effigy [ep]
*Year: 2019
*Genre: Black Metal
*Country: Australia (IMG:https://metalarea.org/forum/style_images/flags/Australia.png)
*Format: mp3@CBR320kbps
*Size: 55MB

Tracklist:
1. Intro 01:17
2. Ritual Mist 04:40
3. Effigy 04:06
4. Sleeper 02:33
5. Damnation 04:34
******************************
Total playing time: 17:10



Technical info
(IMG:https://metalarea.org/images/spectrogram/2024_Apr/eed5af7839ea0051ae36b8da6e0dfe38.png)
Input File: 02 - Ritual Mist.mp3
Channels : 2
Sample Rate : 44100
Precision : 16-bit
Duration : 00:04:40.99 = 12391571 samples = 21074.1 CDDA sectors
File Size : 14.6M
Bit Rate : 414k
Sample Encoding: MPEG audio (layer I, II or III)
Comments :
Title=Ritual Mist
Artist=Brethren
Album=Effigy
Tracknumber=02/5
Year=2019
Genre=Metal
Discnumber=1/1



Register


Go to the top of the page
  Insert nick Quick quote
+Quote Post

Reply to this topicStart new topic
1 User(s) are reading this topic (1 Guests and 0 Anonymous Users)
0 Members:

 



- Lo-Fi Version Support form
Copyrights and abuse reports form
Time is now: 27th May 2024 - 22:11:29