Welcome Guest ( Log In | Register )

Объявления

* gmail.com упорно продолжает считать почту с нас "unsolicited" и отбивает в том числе и письма активации, поэтому просьба использовать альтернативные почтовые ящики.
------------
* gmail.com continues reject all mail from us as "unsolicited" (activation mails too) therefore please use alternate mail servers.

> Releases Upload / Добавление релизов

Добавить релиз тут / Click here to add release
Рекомендованные обменники / Recommended file shares

 
Reply to this topicStart new topic
> Brethren - Conquer The Inferior [ep] (2022), Black Metal
post Apr 13 2024, 14:32:47
Post #1

funeral doom fan
Group Icon
Group: S-moderation team
Posts: 5,881
Releases: 3524
From: Ростов-на-Дону
On Forums: 18 years 4 months
Thanks: 64762 time(s)
Russian Federation


(IMG:https://metalarea.org/images/audiocovers/2024_Apr/acov_tid395521_thumb.jpg)

*Artist: Brethren
*Album: Conquer The Inferior [ep]
*Year: 2022
*Genre: Black Metal
*Country: Australia (IMG:https://metalarea.org/forum/style_images/flags/Australia.png)
*Format: mp3@CBR320kbps
*Size: 57MB

Tracklist:
1. Intro 01:05
2. Retaliate 02:30
3. Ballistik Desecration 02:12
4. Conquer the Inferior 03:08
5. Strive for Obliteration 02:55
6. Caskets 01:46
7. Trap and Kill 03:26
8. Rain Holy Death 02:40
******************************
Total playing time: 19:42



Technical info
(IMG:https://metalarea.org/images/spectrogram/2024_Apr/df1cecfa111d83ef8355b1c6048c49ee.png)
Input File: 02 - Retaliate.mp3
Channels : 2
Sample Rate : 44100
Precision : 16-bit
Duration : 00:02:30.16 = 6622056 samples = 11262 CDDA sectors
File Size : 7.53M
Bit Rate : 401k
Sample Encoding: MPEG audio (layer I, II or III)
Comments :
Title=Retaliate
Artist=Brethren
Album=Conquer The Inferior
Tracknumber=02
Year=2022
Genre=Metal



Register


Go to the top of the page
  Insert nick Quick quote
+Quote Post

Reply to this topicStart new topic
2 User(s) are reading this topic (2 Guests and 0 Anonymous Users)
0 Members:

 



- Lo-Fi Version Support form
Copyrights and abuse reports form
Time is now: 28th May 2024 - 00:00:16