Welcome Guest ( Log In | Register )

Объявления

* gmail.com упорно продолжает считать почту с нас "unsolicited" и отбивает в том числе и письма активации, поэтому просьба использовать альтернативные почтовые ящики.
------------
* gmail.com continues reject all mail from us as "unsolicited" (activation mails too) therefore please use alternate mail servers.

> Releases Upload / Добавление релизов

Добавить релиз тут / Click here to add release
Рекомендованные обменники / Recommended file shares

 
Reply to this topicStart new topic
> Cold Mourning - Colder Than Thou [compilation] (2011), Doom Metal (D)
post Apr 13 2024, 14:48:23
Post #1

Group: Дух
Posts: 9
Releases: 5
On Forums: 11 years 6 months
Thanks: 133 time(s)
Unknown


(IMG:https://metalarea.org/images/audiocovers/2024_Apr/acov_tid395522_thumb.jpg)

*Artist: Cold Mourning
*Album: Colder Than Thou [compilation]
*Year: 2011
*Genre: Doom Metal
*Country: United States (IMG:https://metalarea.org/forum/style_images/flags/United%20States.png)
*Format: mp3@CBR320kbps
*Size: 168MB

Tracklist:
1. Thy Cross
2. The Coming Of Winter
3. Old Man Storm
4. Losing My Shadow / Catacomb
5. Jotun
6. Doom Of The Rising Son
7. The One Who Sleeps
8. Isolation / Throwback
9. Boggy Creek
10. Fall Of Life
11. Looking Through A Smoking Glass
12. In The Midst Of Stones
13. Old Man Storm
14. Frostbit
15. Thy Cross / The Coming Of Winter
******************************
Total playing time: 1:17:18

Technical info
(IMG:https://metalarea.org/images/spectrogram/2024_Apr/16dcb197e25fe5970f9cf04ea87f7699.png)
Input File: 14. Frostbit.mp3
Channels : 2
Sample Rate : 44100
Precision : 16-bit
Duration : 00:05:03.43 = 13381219 samples = 22757.2 CDDA sectors
File Size : 12.1M
Bit Rate : 320k
Sample Encoding: MPEG audio (layer I, II or III)
Comments :
Title=Frostbit
Artist=Cold Mourning
Album=Colder Than Thou
Tracknumber=14
Year=2011



Register


Go to the top of the page
  Insert nick Quick quote
+Quote Post

Reply to this topicStart new topic
1 User(s) are reading this topic (1 Guests and 0 Anonymous Users)
0 Members:

 



- Lo-Fi Version Support form
Copyrights and abuse reports form
Time is now: 27th May 2024 - 22:39:28