Welcome Guest ( Log In | Register )

Объявления

* gmail.com упорно продолжает считать почту с нас "unsolicited" и отбивает в том числе и письма активации, поэтому просьба использовать альтернативные почтовые ящики.
------------
* gmail.com continues reject all mail from us as "unsolicited" (activation mails too) therefore please use alternate mail servers.

> Releases Upload / Добавление релизов

Добавить релиз тут / Click here to add release
Рекомендованные обменники / Recommended file shares

 
Reply to this topicStart new topic
> Blodmåne - Dod Morka Skogen (2017), Black Metal
post Apr 13 2024, 14:54:14
Post #1

funeral doom fan
Group Icon
Group: S-moderation team
Posts: 5,881
Releases: 3524
From: Ростов-на-Дону
On Forums: 18 years 4 months
Thanks: 64761 time(s)
Russian Federation


(IMG:https://metalarea.org/images/audiocovers/2024_Apr/acov_tid395524_thumb.jpeg)

*Artist: Blodmåne
*Album: Dod Morka Skogen
*Year: 2017
*Genre: Black Metal
*Country: Australia (IMG:https://metalarea.org/forum/style_images/flags/Australia.png)
*Format: mp3@CBR320kbps
*Size: 91MB

Tracklist:
1. Guardian Demon 03:41
2. The Left Hand Path 04:50
3. Dod morka skogen 04:12
4. The River Styx 04:35
5. Nightmare Kingdom 07:14
6. Of Hades Reborn 04:27
7. The Twisted Enigma 04:43
8. Dawn of Belial 05:04
******************************
Total playing time: 38:46

(IMG:https://metalarea.org/images/youtube.png)

Technical info
(IMG:https://metalarea.org/images/spectrogram/2024_Apr/c3daf6a8fe167ccde006c6b0c938d52a.png)
Input File: 01 - Guardian Demon.mp3
Channels : 2
Sample Rate : 44100
Precision : 16-bit
Duration : 00:05:03.04 = 13363932 samples = 22727.8 CDDA sectors
File Size : 12.5M
Bit Rate : 329k
Sample Encoding: MPEG audio (layer I, II or III)
Comments :
Title=Guardian Demon
Artist=Blodmåne
Album=Dod Morka Skogen
Tracknumber=01/01
Year=2017
Discnumber=01/01



Register


Go to the top of the page
  Insert nick Quick quote
+Quote Post

Reply to this topicStart new topic
1 User(s) are reading this topic (1 Guests and 0 Anonymous Users)
0 Members:

 



- Lo-Fi Version Support form
Copyrights and abuse reports form
Time is now: 27th May 2024 - 23:01:29