Welcome Guest ( Log In | Register )

Объявления

* gmail.com упорно продолжает считать почту с нас "unsolicited" и отбивает в том числе и письма активации, поэтому просьба использовать альтернативные почтовые ящики.
------------
* gmail.com continues reject all mail from us as "unsolicited" (activation mails too) therefore please use alternate mail servers.

> Releases Upload / Добавление релизов

Добавить релиз тут / Click here to add release
Рекомендованные обменники / Recommended file shares

 
Reply to this topicStart new topic
> Cinayet - Find Your Way To Die (2021), Black/Death Metal
post Apr 13 2024, 14:55:25
Post #1

funeral doom fan
Group Icon
Group: S-moderation team
Posts: 5,881
Releases: 3524
From: Ростов-на-Дону
On Forums: 18 years 4 months
Thanks: 64762 time(s)
Russian Federation


(IMG:https://metalarea.org/images/audiocovers/2024_Apr/acov_tid395528_thumb.jpg)

*Artist: Cinayet
*Album: Find Your Way To Die
*Year: 2021
*Genre: Black/Death Metal
*Country: Australia (IMG:https://metalarea.org/forum/style_images/flags/Australia.png)
*Format: mp3@CBR320kbps
*Size: 67MB

Tracklist:
1. Swallow Your God 05:36
2. Murder - Part 1 06:27
3. Blacksun 04:58
4. Carnissa 04:06
5. Demonia 03:55
6. My Own Death 03:53
******************************
Total playing time: 28:55



Technical info
(IMG:https://metalarea.org/images/spectrogram/2024_Apr/744233a6c6b15c9ca6e42f4d9bb8dc6f.png)
Input File: 01 - Swallow Your God.mp3
Channels : 2
Sample Rate : 44100
Precision : 16-bit
Duration : 00:05:36.07 = 14820863 samples = 25205.5 CDDA sectors
File Size : 13.6M
Bit Rate : 324k
Sample Encoding: MPEG audio (layer I, II or III)
Comments :
Title=Swallow Your God
Artist=Cinayet
Album=Find Your Way To Die
Tracknumber=01
Year=2021
Genre=Black Metal
Discnumber=1



Register


Go to the top of the page
  Insert nick Quick quote
+Quote Post

Reply to this topicStart new topic
2 User(s) are reading this topic (2 Guests and 0 Anonymous Users)
0 Members:

 



- Lo-Fi Version Support form
Copyrights and abuse reports form
Time is now: 27th May 2024 - 23:19:28