Welcome Guest ( Log In | Register )

Объявления

* gmail.com упорно продолжает считать почту с нас "unsolicited" и отбивает в том числе и письма активации, поэтому просьба использовать альтернативные почтовые ящики.
------------
* gmail.com continues reject all mail from us as "unsolicited" (activation mails too) therefore please use alternate mail servers.

> Releases Upload / Добавление релизов

Добавить релиз тут / Click here to add release
Рекомендованные обменники / Recommended file shares

 
Reply to this topicStart new topic
> Deathwinter - Veneration Ov The Non Cosmic Diabolos (2019), Black/Death Metal
post Apr 13 2024, 14:56:20
Post #1

funeral doom fan
Group Icon
Group: S-moderation team
Posts: 5,881
Releases: 3524
From: Ростов-на-Дону
On Forums: 18 years 4 months
Thanks: 64760 time(s)
Russian Federation


(IMG:https://metalarea.org/images/audiocovers/2024_Apr/acov_tid395531_thumb.jpg)

*Artist: Deathwinter
*Album: Veneration Ov The Non Cosmic Diabolos
*Year: 2019
*Genre: Black/Death Metal
*Country: Australia (IMG:https://metalarea.org/forum/style_images/flags/Australia.png)
*Format: mp3@CBR320kbps
*Size: 137MB

Tracklist:
1. Storms Beyond Death and the Black Void ov Chaos and Nothingness 10:14
2. Calling unto Death 06:40
3. Descent into the Chaos Abyss 08:45
4. Born in the Devil Fire 06:59
5. Winters Deathly Shadows 09:05
6. Veneration ov the Non Cosmic Diabolos 08:59
7. Ageless Fires Down 08:31
******************************
Total playing time: 59:13



Technical info
(IMG:https://metalarea.org/images/spectrogram/2024_Apr/fd979af716bfc824f4728795d9cb9984.png)
Input File: 02 - Calling Unto Death.mp3
Channels : 2
Sample Rate : 44100
Precision : 16-bit
Duration : 00:06:40.09 = 17643837 samples = 30006.5 CDDA sectors
File Size : 16.3M
Bit Rate : 326k
Sample Encoding: MPEG audio (layer I, II or III)
Comments :
Title=Calling Unto Death
Artist=Deathwinter
Album=Veneration Ov The Non Cosmic Diabolos
Tracknumber=02
Year=2019
Genre=Black Metal



Register


Go to the top of the page
  Insert nick Quick quote
+Quote Post

Reply to this topicStart new topic
2 User(s) are reading this topic (2 Guests and 0 Anonymous Users)
0 Members:

 



- Lo-Fi Version Support form
Copyrights and abuse reports form
Time is now: 27th May 2024 - 22:59:10