Welcome Guest ( Log In | Register )

Объявления

* gmail.com упорно продолжает считать почту с нас "unsolicited" и отбивает в том числе и письма активации, поэтому просьба использовать альтернативные почтовые ящики.
------------
* gmail.com continues reject all mail from us as "unsolicited" (activation mails too) therefore please use alternate mail servers.

> Releases Upload / Добавление релизов

Добавить релиз тут / Click here to add release
Рекомендованные обменники / Recommended file shares

 
Reply to this topicStart new topic
> Fomóire - Fomóire [demo] (2024), Raw Black Metal
post Apr 13 2024, 15:06:09
Post #1

Правь статус, 616
**************
Group: Металариец
Posts: 10,768
Releases: 8771
From: 55°35’N 38°08’E
On Forums: 15 years 10 months
Thanks: 155996 time(s)
Russian Federation


(IMG:https://metalarea.org/images/audiocovers/2024_Apr/acov_tid395533_thumb.jpg)

*Artist: Fomóire
*Album: Fomóire [demo]
*Year: 2024
*Genre: Raw Black Metal
*Country: United States (IMG:https://metalarea.org/forum/style_images/flags/United%20States.png)
*Format: mp3@CBR320kbps
*Size: 36MB

Tracklist:
1.Abartach Undying One 02:50
2.Mist of Forlorn Ancestors 03:57
3.Battle of Mag Tuired 04:01
4.Void of Balor 04:26
******************************
Total playing time: 15:14



Technical info
(IMG:https://metalarea.org/images/spectrogram/2024_Apr/ff318be2ca6fc94c4cdba4700eb3eb68.png)
Input File: 01 Abartach Undying One.mp3
Channels : 2
Sample Rate : 44100
Precision : 16-bit
Duration : 00:02:50.36 = 7512744 samples = 12776.8 CDDA sectors
File Size : 7.05M
Bit Rate : 331k
Sample Encoding: MPEG audio (layer I, II or III)
Comments :
Title=Abartach Undying One
Artist=Fom​ó​ire
Album=Fom​ó​ire
Tracknumber=1/4
Year=2024
Genre=Black Metal
Discnumber=1/1



Register


Go to the top of the page
  Insert nick Quick quote
+Quote Post

Reply to this topicStart new topic
1 User(s) are reading this topic (1 Guests and 0 Anonymous Users)
0 Members:

 



- Lo-Fi Version Support form
Copyrights and abuse reports form
Time is now: 28th May 2024 - 00:00:48