Welcome Guest ( Log In | Register )

Объявления

* gmail.com упорно продолжает считать почту с нас "unsolicited" и отбивает в том числе и письма активации, поэтому просьба использовать альтернативные почтовые ящики.
------------
* gmail.com continues reject all mail from us as "unsolicited" (activation mails too) therefore please use alternate mail servers.

> Releases Upload / Добавление релизов

Добавить релиз тут / Click here to add release
Рекомендованные обменники / Recommended file shares

 
Reply to this topicStart new topic
> Demogorgon - The Anti-Human Manifesto [demo] (2016), Black Metal (D27)
post Apr 13 2024, 15:12:59
Post #1

funeral doom fan
Group Icon
Group: S-moderation team
Posts: 5,881
Releases: 3524
From: Ростов-на-Дону
On Forums: 18 years 4 months
Thanks: 64762 time(s)
Russian Federation


(IMG:https://metalarea.org/images/audiocovers/2024_Apr/acov_tid395534_thumb.jpg)

*Artist: Demogorgon
*Album: The Anti-Human Manifesto [demo]
*Year: 2016
*Genre: Black Metal
*Country: Australia (IMG:https://metalarea.org/forum/style_images/flags/Australia.png)
*Format: mp3@CBR320kbps
*Size: 30MB

Tracklist:
1. Shut Up and Die!!! 03:15
2. Godless 03:36
3. Nuclear Fucking Holocaust 03:12
4. The Genocide Machine 02:55
******************************
Total playing time: 12:58



Technical info
(IMG:https://metalarea.org/images/spectrogram/2024_Apr/c9d17806bad32ac876faba6a22c37cfa.png)
Input File: 01 - Shut Up And Die!!!.mp3
Channels : 2
Sample Rate : 44100
Precision : 16-bit
Duration : 00:03:15.25 = 8610657 samples = 14644 CDDA sectors
File Size : 7.85M
Bit Rate : 322k
Sample Encoding: MPEG audio (layer I, II or III)
Comments :
Title=Shut Up And Die!!!
Artist=Demogorgon
Album=The Anti-Human Manifesto
Tracknumber=01
Year=2016-t -Sa
Discnumber=1



Register


Go to the top of the page
  Insert nick Quick quote
+Quote Post

Reply to this topicStart new topic
2 User(s) are reading this topic (2 Guests and 0 Anonymous Users)
0 Members:

 



- Lo-Fi Version Support form
Copyrights and abuse reports form
Time is now: 27th May 2024 - 23:43:08