Welcome Guest ( Log In | Register )

Объявления

* gmail.com упорно продолжает считать почту с нас "unsolicited" и отбивает в том числе и письма активации, поэтому просьба использовать альтернативные почтовые ящики.
------------
* gmail.com continues reject all mail from us as "unsolicited" (activation mails too) therefore please use alternate mail servers.

> Releases Upload / Добавление релизов

Добавить релиз тут / Click here to add release
Рекомендованные обменники / Recommended file shares

 
Reply to this topicStart new topic
> Demogorgon - Anti (2020), Black Metal (D27)
post Apr 13 2024, 15:14:16
Post #1

funeral doom fan
Group Icon
Group: S-moderation team
Posts: 5,881
Releases: 3524
From: Ростов-на-Дону
On Forums: 18 years 4 months
Thanks: 64761 time(s)
Russian Federation


(IMG:https://metalarea.org/images/audiocovers/2024_Apr/acov_tid395539_thumb.jpg)

*Artist: Demogorgon
*Album: Anti
*Year: 2020
*Genre: Black Metal
*Country: Australia (IMG:https://metalarea.org/forum/style_images/flags/Australia.png)
*Format: mp3@CBR320kbps
*Size: 103MB

Tracklist:
1. The Coming Darkness 02:41
2. Luciferian Power 06:06
3. Malignant Westboro Tumor 04:20
4. Pissing on the Vaticans Ashes 04:49
5. Yahweh Dethroned 05:06
6. Sadistic Intent 04:43
7. Nail Them Up!!! 04:35
8. Kill Yourself 03:49
9. You Have Failed as a Human 04:19
10. Fire Up the Ovens 04:34
******************************
Total playing time: 45:02



Technical info
(IMG:https://metalarea.org/images/spectrogram/2024_Apr/b31f7c78deca1a009e4cf8984ac2cd55.png)
Input File: 02 - Luciferian Power.mp3
Channels : 2
Sample Rate : 44100
Precision : 16-bit
Duration : 00:06:06.18 = 16148582 samples = 27463.6 CDDA sectors
File Size : 14.7M
Bit Rate : 321k
Sample Encoding: MPEG audio (layer I, II or III)
Comments :
Title=Luciferian Power
Artist=Demogorgon
Album=Anti
Tracknumber=02
Year=2020-u -Th
Discnumber=1



Register


Go to the top of the page
  Insert nick Quick quote
+Quote Post

Reply to this topicStart new topic
1 User(s) are reading this topic (1 Guests and 0 Anonymous Users)
0 Members:

 



- Lo-Fi Version Support form
Copyrights and abuse reports form
Time is now: 27th May 2024 - 23:09:42