Welcome Guest ( Log In | Register )

Объявления

* gmail.com упорно продолжает считать почту с нас "unsolicited" и отбивает в том числе и письма активации, поэтому просьба использовать альтернативные почтовые ящики.
------------
* gmail.com continues reject all mail from us as "unsolicited" (activation mails too) therefore please use alternate mail servers.

> Releases Upload / Добавление релизов

Добавить релиз тут / Click here to add release
Рекомендованные обменники / Recommended file shares

 
Reply to this topicStart new topic
> Drohtnung - Black Void Ov Heaven (2022), Depressive Black Metal/Noise (D6)
post Apr 13 2024, 15:14:49
Post #1

funeral doom fan
Group Icon
Group: S-moderation team
Posts: 5,881
Releases: 3524
From: Ростов-на-Дону
On Forums: 18 years 4 months
Thanks: 64758 time(s)
Russian Federation


(IMG:https://metalarea.org/images/audiocovers/2024_Apr/acov_tid395541_thumb.jpg)

*Artist: Drohtnung
*Album: Black Void Ov Heaven
*Year: 2022
*Genre: Depressive Black Metal/Noise
*Country: Australia (IMG:https://metalarea.org/forum/style_images/flags/Australia.png)
*Format: mp3@CBR320kbps
*Size: 72MB

Tracklist:
1. ... 01:40
2. Black Void ov Heaven 04:49
3. Dance in Gehenna 04:41
4. Passage of the Nihilist 02:34
5. Tormented Soul 02:01
6. Black Seed of Depression 07:33
7. The Black Aurora 06:32
8. ... 01:17
******************************
Total playing time: 31:07



Technical info
(IMG:https://metalarea.org/images/spectrogram/2024_Apr/70bf7e81792e0f87402b0b45d8edf105.png)
Input File: 06 - Black Seed Of Depression.mp3
Channels : 2
Sample Rate : 44100
Precision : 16-bit
Duration : 00:07:32.10 = 19937610 samples = 33907.5 CDDA sectors
File Size : 18.3M
Bit Rate : 324k
Sample Encoding: MPEG audio (layer I, II or III)
Comments :
Title=Black Seed Of Depression
Artist=Drohtnung
Album=Black Void Ov Heaven
Tracknumber=06
Year=2022
Genre=Hard Rock



Register


Go to the top of the page
  Insert nick Quick quote
+Quote Post

Reply to this topicStart new topic
1 User(s) are reading this topic (1 Guests and 0 Anonymous Users)
0 Members:

 



- Lo-Fi Version Support form
Copyrights and abuse reports form
Time is now: 27th May 2024 - 22:40:44