Welcome Guest ( Log In | Register )

Объявления

* gmail.com упорно продолжает считать почту с нас "unsolicited" и отбивает в том числе и письма активации, поэтому просьба использовать альтернативные почтовые ящики.
------------
* gmail.com continues reject all mail from us as "unsolicited" (activation mails too) therefore please use alternate mail servers.

> Releases Upload / Добавление релизов

Добавить релиз тут / Click here to add release
Рекомендованные обменники / Recommended file shares

 
Reply to this topicStart new topic
> Dying Kings - An Unforgiving Landscape (2019), Black Metal
post Apr 13 2024, 15:31:35
Post #1

funeral doom fan
Group Icon
Group: S-moderation team
Posts: 5,881
Releases: 3524
From: Ростов-на-Дону
On Forums: 18 years 4 months
Thanks: 64761 time(s)
Russian Federation


(IMG:https://metalarea.org/images/audiocovers/2024_Apr/acov_tid395543_thumb.jpg)

*Artist: Dying Kings
*Album: An Unforgiving Landscape
*Year: 2019
*Genre: Black Metal
*Country: Australia (IMG:https://metalarea.org/forum/style_images/flags/Australia.png)
*Format: mp3@CBR320kbps
*Size: 73MB

Tracklist:
1. Dream of Serpents 03:56
2. One More Star 06:33
3. An Unforgiving Landscape 04:29
4. Ritualistic Torture 07:35
5. The Ocean Floor 08:17
******************************
Total playing time: 30:50



Technical info
(IMG:https://metalarea.org/images/spectrogram/2024_Apr/db1d7d153ebb8f24febfdc7367efad6f.png)
Input File: 01 - Dream Of Serpents.mp3
Channels : 2
Sample Rate : 44100
Precision : 16-bit
Duration : 00:04:30.96 = 11949204 samples = 20321.8 CDDA sectors
File Size : 10.9M
Bit Rate : 323k
Sample Encoding: MPEG audio (layer I, II or III)
Comments :
Title=Dream Of Serpents
Artist=Dying Kings
Album=An Unforgiving Landscape
Tracknumber=01/01
Year=2019
Discnumber=01/01



Register


Go to the top of the page
  Insert nick Quick quote
+Quote Post

Reply to this topicStart new topic
1 User(s) are reading this topic (1 Guests and 0 Anonymous Users)
0 Members:

 



- Lo-Fi Version Support form
Copyrights and abuse reports form
Time is now: 27th May 2024 - 23:01:53