Welcome Guest ( Log In | Register )

Объявления

* gmail.com упорно продолжает считать почту с нас "unsolicited" и отбивает в том числе и письма активации, поэтому просьба использовать альтернативные почтовые ящики.
------------
* gmail.com continues reject all mail from us as "unsolicited" (activation mails too) therefore please use alternate mail servers.

> Releases Upload / Добавление релизов

Добавить релиз тут / Click here to add release
Рекомендованные обменники / Recommended file shares

 
Reply to this topicStart new topic
> Elleskudt - Into The Woods [ep] (2020), Black Metal
post Apr 13 2024, 15:33:10
Post #1

funeral doom fan
Group Icon
Group: S-moderation team
Posts: 5,881
Releases: 3524
From: Ростов-на-Дону
On Forums: 18 years 4 months
Thanks: 64762 time(s)
Russian Federation


(IMG:https://metalarea.org/images/audiocovers/2024_Apr/acov_tid395547_thumb.jpg)

*Artist: Elleskudt
*Album: Into The Woods [ep]
*Year: 2020
*Genre: Black Metal
*Country: Australia (IMG:https://metalarea.org/forum/style_images/flags/Australia.png)
*Format: mp3@CBR320kbps
*Size: 36MB

Tracklist:
1. Into the Woods I 08:43
2. Into the Woods II 04:34
******************************
Total playing time: 13:17



Technical info
(IMG:https://metalarea.org/images/spectrogram/2024_Apr/c660ef7b61ec5a2e7fb9156908c1441b.png)
Input File: 02 - Into The Woods II.mp3
Channels : 2
Sample Rate : 44100
Precision : 16-bit
Duration : 00:04:35.06 = 12130058 samples = 20629.4 CDDA sectors
File Size : 14.1M
Bit Rate : 410k
Sample Encoding: MPEG audio (layer I, II or III)
Comments :
Title=Into The Woods II
Artist=Elleskudt
Album=Into The Woods
Tracknumber=02/2
Year=2020
Genre=Rock
Discnumber=1/1



Register


Go to the top of the page
  Insert nick Quick quote
+Quote Post

Reply to this topicStart new topic
2 User(s) are reading this topic (2 Guests and 0 Anonymous Users)
0 Members:

 



- Lo-Fi Version Support form
Copyrights and abuse reports form
Time is now: 27th May 2024 - 23:19:37