Welcome Guest ( Log In | Register )

Объявления

* gmail.com упорно продолжает считать почту с нас "unsolicited" и отбивает в том числе и письма активации, поэтому просьба использовать альтернативные почтовые ящики.
------------
* gmail.com continues reject all mail from us as "unsolicited" (activation mails too) therefore please use alternate mail servers.

> Releases Upload / Добавление релизов

Добавить релиз тут / Click here to add release
Рекомендованные обменники / Recommended file shares

 
Reply to this topicStart new topic
> Trespass - Pathetic World Collapse (2024), Black/Death Metal/Grindcore (D8)
post Apr 13 2024, 15:40:32
Post #1

Правь статус, 616
**************
Group: Металариец
Posts: 10,768
Releases: 8771
From: 55°35’N 38°08’E
On Forums: 15 years 10 months
Thanks: 155996 time(s)
Russian Federation


(IMG:https://metalarea.org/images/audiocovers/2024_Apr/acov_tid395552_thumb.jpg)

*Artist: Trespass
*Album: Pathetic World Collapse
*Year: 2024
*Genre: Black/Death Metal/Grindcore
*Country: United States (IMG:https://metalarea.org/forum/style_images/flags/United%20States.png)
*Format: mp3@CBR320kbps
*Size: 47MB

Tracklist:
1.No Mercy 02:47
2.Dragged And Torn 01:55
3.Perverse Suicide 01:31
4.Predator Holocaust 02:57
5.Snuff Oath 03:00
6.Massacre Majesty 00:56
7.Death Worthy 02:56
8.Maggot Pulverization 04:18
******************************
Total playing time: 20:20


(IMG:https://metalarea.org/images/youtube.png)

Technical info
(IMG:https://metalarea.org/images/spectrogram/2024_Apr/234a68aeb7143387e3ca97d00e3b0d5f.png)
Input File: 01 No Mercy.mp3
Channels : 2
Sample Rate : 44100
Precision : 16-bit
Duration : 00:02:47.82 = 7400994 samples = 12586.7 CDDA sectors
File Size : 6.78M
Bit Rate : 323k
Sample Encoding: MPEG audio (layer I, II or III)
Comments :
Title=No Mercy
Artist=Trespass
Album=Pathetic World Collapse
Tracknumber=1
Year=2024
Genre=Black Metal



Register


Go to the top of the page
  Insert nick Quick quote
+Quote Post

Reply to this topicStart new topic
2 User(s) are reading this topic (2 Guests and 0 Anonymous Users)
0 Members:

 



- Lo-Fi Version Support form
Copyrights and abuse reports form
Time is now: 27th May 2024 - 23:25:47