Welcome Guest ( Log In | Register )

Объявления

* gmail.com упорно продолжает считать почту с нас "unsolicited" и отбивает в том числе и письма активации, поэтому просьба использовать альтернативные почтовые ящики.
------------
* gmail.com continues reject all mail from us as "unsolicited" (activation mails too) therefore please use alternate mail servers.
> Forbidden Evil - The Bloody Birth [compilation] (2015), Thrash Metal
post Apr 14 2024, 20:26:33
Post #1

Мегаманьяк
***********
Group: Металариец
Posts: 1,890
Releases: 26
From: Москва
On Forums: 16 years 1 month
Thanks: 1343 time(s)
Antarctica


(IMG:https://metalarea.org/images/audiocovers/2024_Apr/acov_tid395654_thumb.jpeg)

*Artist: Forbidden Evil
*Album: The Bloody Birth [compilation]
*Year: 2015
*Genre: Thrash Metal
*Country: United States (IMG:https://metalarea.org/forum/style_images/flags/United%20States.png)
*Format: mp3@CBR320kbps
*Size: 153MB

Tracklist:
1. The Last Day (Intro) 00:21
2. Next to Die 02:59
3. Forbidden Evil 05:56
4. Chalice of Blood 05:12
5. As Good as Dead 04:23
6. Chalice of Blood 04:43
7. Follow Me 07:38
8. March into Fire 05:17
9. Legions of Death 03:16
10. Next to Die 03:15
11. Forbidden Evil 06:10
12. Egypt Has Fallen 03:48
13. Legions of Death (live) 03:57
14. Am I Evil (live) 06:15
15. A Lesson in Violence (live) 03:18
16. Egypt Has Fallen (live) 03:49
******************************
Total playing time: 1:10:17

(IMG:https://metalarea.org/images/youtube.png)

Extended info
Tracks 1-4: Endless Slaughter Demo
Track 5: As Good as Dead Demo
Tracks 6-8: March into Fire Demo
Tracks 9-12: 1985 Rehearsal
Tracks 13-16: 1985 Live San Francisco, CA

Не уверен, транскод это или нет, качество оставляет желать лучшего.


Technical info
(IMG:https://metalarea.org/images/spectrogram/2024_Apr/b54debf3ba3e7ff65e8752cd2b8c0086.png)
Input File: 09 [Rehearsal 1985] Legions Of Death.mp3
Channels : 2
Sample Rate : 44100
Precision : 16-bit
Duration : 00:03:16.43 = 8662387 samples = 14732 CDDA sectors
File Size : 7.91M
Bit Rate : 322k
Sample Encoding: MPEG audio (layer I, II or III)
Comments :
Title=Legions Of Death
Artist=Forbidden Evil
Album=The Bloody Birth
Tracknumber=9/16
Year=2015
Genre=Metal



Register


Go to the top of the page
  Insert nick Quick quote
+Quote Post
 
Start new topic
Replies (1 - 2)
post Apr 14 2024, 21:25:57
Post #2

_ - = # Thrashogolic # = - _ ... а давайте поржём все вместе
**************
Group: Металариец
Posts: 22,435
Releases: 4444
From: 404
On Forums: 13 years 11 months
Thanks: 29143 time(s)
Ukraine


Это не транскод - это транскодищще!
Go to the top of the page
  Insert nick Quick quote
+Quote Post
post Apr 14 2024, 21:32:46
Post #3

Мегаманьяк
***********
Group: Металариец
Posts: 1,890
Releases: 26
From: Москва
On Forums: 16 years 1 month
Thanks: 1343 time(s)
Antarctica


ЦИТАТА(Genuine Thrashiac @ Apr 15 2024, 00:25:57) *
Это не транскод - это транскодищще!

Что поделать, лучше нету (IMG:style_emoticons/default/smile1.gif)
К тому же все оригинальные демки на кассетах, а этот мексиканский диск фиг знает что внутри содержит.


Thanks:
Go to the top of the page
  Insert nick Quick quote
+Quote Post

Reply to this topicStart new topic
2 User(s) are reading this topic (2 Guests and 0 Anonymous Users)
0 Members:

 



- Lo-Fi Version Support form
Copyrights and abuse reports form
Time is now: 26th May 2024 - 10:49:00