Welcome Guest ( Log In | Register )

Объявления

* gmail.com упорно продолжает считать почту с нас "unsolicited" и отбивает в том числе и письма активации, поэтому просьба использовать альтернативные почтовые ящики.
------------
* gmail.com continues reject all mail from us as "unsolicited" (activation mails too) therefore please use alternate mail servers.
 
Reply to this topicStart new topic
> Chullpa - Iconos De Destrucción (2008), Death Metal
post Apr 15 2024, 19:11:39
Post #1

Два Литра
**
Group: Дух
Posts: 133
Releases: 129
From: Новосибирск
On Forums: 4 years 4 months
Thanks: 757 time(s)
Russian Federation


(IMG:https://metalarea.org/images/audiocovers/2024_Apr/acov_tid395698_thumb.jpg)

*Artist: Chullpa
*Album: Iconos De Destrucción
*Year: 2008
*Genre: Death Metal
*Country: Bolivia (IMG:https://metalarea.org/forum/style_images/flags/Bolivia.png)
*Format: mp3@CBR320kbps
*Size: 86MB

Tracklist:
01. Momia 04:51
02. En Tu Mundo 04:02
03. Tierra 04:58
04. Bañado Con Sangre Inocente 06:00
05. Absorción De Vidas 05:01
06: Animal Indefenso Oculto 07:00
07. Un Solo Poder 05:31
08. Falsos Dioses 03:31
09. Equilibrio Destruido 05:34
******************************
Total playing time: 46:28

Technical info
(IMG:https://metalarea.org/images/spectrogram/2024_Apr/bede1f9c27bec56bd4eceac2f681e31c.png)
Input File: 05. Absorción De Vidas.mp3
Channels : 2
Sample Rate : 44100
Precision : 16-bit
Duration : 00:05:01.08 = 13277408 samples = 22580.6 CDDA sectors
File Size : 9.73M
Bit Rate : 259k
Sample Encoding: MPEG audio (layer I, II or III)
Comments :
Title=Absorción De Vidas
Artist=Chullpa
Album=Iconos De Destrucción
Tracknumber=05
Year=2008
Genre=Death Metal



Register


Thanks:
Go to the top of the page
  Insert nick Quick quote
+Quote Post

Reply to this topicStart new topic
2 User(s) are reading this topic (2 Guests and 0 Anonymous Users)
0 Members:

 



- Lo-Fi Version Support form
Copyrights and abuse reports form
Time is now: 21st June 2024 - 08:24:25