Welcome Guest ( Log In | Register )

Объявления

* gmail.com упорно продолжает считать почту с нас "unsolicited" и отбивает в том числе и письма активации, поэтому просьба использовать альтернативные почтовые ящики.
------------
* gmail.com continues reject all mail from us as "unsolicited" (activation mails too) therefore please use alternate mail servers.

> И неформату есть предел.

Рэп/хип-хоп/шансон/поп удаляются. Для них есть свои порталы.

 
Reply to this topicStart new topic
> Per Wiberg - The Serpent’s Here (2024), Progressive Rock
post Apr 16 2024, 16:27:09
Post #1

21st Century Schizoid Man
**************
Group: Металариец
Posts: 8,555
Releases: 356
From: 1984
On Forums: 16 years 2 months
Thanks: 9786 time(s)
Unknown


(IMG:https://metalarea.org/images/audiocovers/2024_Apr/acov_tid395734_thumb.jpg)

*Artist: Per Wiberg
*Album: The Serpent’s Here
*Year: 2024
*Genre: Progressive Rock
*Country: Sweden (IMG:https://metalarea.org/forum/style_images/flags/Sweden.png)
*Format: mp3@CBR320kbps
*Size: 106MB

Tracklist:
01. Dead Sky Lullaby 06:58
02. The Serpent's Here 05:32
03. Blackguards Stand Silent 08:31
04. This House Is Someone Else's Now 06:54
05. He Just Disappeared 06:28
06. Follow The Unknown 05:55
07. The Losers (Bonus Track) 05:36
******************************
Total playing time: 45:54

(IMG:https://metalarea.org/images/youtube.png)


Extended info
Per Wiberg (Opeth, Kamchatka, King Hobo, Spiritual Beggars, Candlemass (live), Tiamat (live)) - vocals/guitars/bass/keyboards
Mikael Tuominen (Kungens Män) - bass
Tor Sjödén (Viagra Boys) - drums


Technical info
(IMG:https://metalarea.org/images/spectrogram/2024_Apr/7ab012965b7867359f1a97e76f0319c1.png)
Input File: 01. Dead Sky Lullaby.mp3
Channels : 2
Sample Rate : 44100
Precision : 16-bit
Duration : 00:06:58.09 = 18437769 samples = 31356.8 CDDA sectors
File Size : 16.7M
Bit Rate : 320k
Sample Encoding: MPEG audio (layer I, II or III)
Comments :
Title=Dead Sky Lullaby
Artist=Per Wiberg
Album=The Serpent’s Here
Tracknumber=1
Year=2024
Genre=Progressive Rock



Register


Thanks:
Go to the top of the page
  Insert nick Quick quote
+Quote Post

Reply to this topicStart new topic
1 User(s) are reading this topic (1 Guests and 0 Anonymous Users)
0 Members:

 



- Lo-Fi Version Support form
Copyrights and abuse reports form
Time is now: 22nd July 2024 - 08:40:02