Welcome Guest ( Log In | Register )

Объявления

* gmail.com упорно продолжает считать почту с нас "unsolicited" и отбивает в том числе и письма активации, поэтому просьба использовать альтернативные почтовые ящики.
------------
* gmail.com continues reject all mail from us as "unsolicited" (activation mails too) therefore please use alternate mail servers.

> И неформату есть предел.

Рэп/хип-хоп/шансон/поп удаляются. Для них есть свои порталы.

 
Reply to this topicStart new topic
> Per Wiberg - Head Without Eyes (2019), Progressive Rock
post Apr 16 2024, 16:42:38
Post #1

21st Century Schizoid Man
**************
Group: Металариец
Posts: 8,447
Releases: 317
From: 1984
On Forums: 16 years 3 weeks
Thanks: 9397 time(s)
Unknown


(IMG:https://metalarea.org/images/audiocovers/2024_Apr/acov_tid395736_thumb.jpg)

*Artist: Per Wiberg
*Album: Head Without Eyes
*Year: 2019
*Genre: Progressive Rock
*Country: Sweden (IMG:https://metalarea.org/forum/style_images/flags/Sweden.png)
*Format: mp3@CBR320kbps
*Size: 97MB

Tracklist:
01. Let the Water Take Me Home 04:54
02. Anywhere the Blood Flows 11:23
03. Pass on the Fear 05:57
04. Get Your Boots On 04:12
05. Pile of Nothing 05:31
06. Fader 09:59
******************************
Total playing time: 41:56

(IMG:https://metalarea.org/images/youtube.png)


Extended info
Per Wiberg (Opeth, Kamchatka, King Hobo, Spiritual Beggars, Candlemass (live), Tiamat (live)) - vocals/guitars/bass/keyboards


Technical info
(IMG:https://metalarea.org/images/spectrogram/2024_Apr/9c34be790a8bc40e78a53f725fbb54e0.png)
Input File: 01. Let the Water Take Me Home.mp3
Channels : 2
Sample Rate : 44100
Precision : 16-bit
Duration : 00:04:54.84 = 13002312 samples = 22112.8 CDDA sectors
File Size : 11.8M
Bit Rate : 321k
Sample Encoding: MPEG audio (layer I, II or III)
Comments :
Title=Let the Water Take Me Home
Artist=Per Wiberg
Album=Head Without Eyes
Tracknumber=1
Year=2019
Genre=Progressive Rock



Register


Thanks:
Go to the top of the page
  Insert nick Quick quote
+Quote Post

Reply to this topicStart new topic
1 User(s) are reading this topic (1 Guests and 0 Anonymous Users)
0 Members:

 



- Lo-Fi Version Support form
Copyrights and abuse reports form
Time is now: 25th May 2024 - 18:35:52