Welcome Guest ( Log In | Register )

Объявления

* gmail.com упорно продолжает считать почту с нас "unsolicited" и отбивает в том числе и письма активации, поэтому просьба использовать альтернативные почтовые ящики.
------------
* gmail.com continues reject all mail from us as "unsolicited" (activation mails too) therefore please use alternate mail servers.
> Misanthropia - Crucifixion [demo] (2023), Depressive Black Metal (D9)
post Apr 16 2024, 18:01:03
Post #1

Два Литра
**
Group: Дух
Posts: 133
Releases: 129
From: Новосибирск
On Forums: 4 years 4 months
Thanks: 757 time(s)
Russian Federation


(IMG:https://metalarea.org/images/audiocovers/2024_Apr/acov_tid395737_thumb.jpg)

*Artist: Misanthropia
*Album: Crucifixion [demo]
*Year: 2023
*Genre: Depressive Black Metal
*Country: Bosnia and Herzegovina (IMG:https://metalarea.org/forum/style_images/flags/Bosnia%20and%20Herzegovina.png)
*Format: mp3@CBR192kbps
*Size: 15MB

Tracklist:
01. Intro 01:51
02. Dead Dream 03:49
03. Silence 01:41
04. Forgotten Souls 02:20
******************************
Total playing time: 9:41

Technical info
(IMG:https://metalarea.org/images/spectrogram/2024_Apr/d38c30446ddfb35244933fe71055f630.png)
Input File: 02. Dead Dream.mp3
Channels : 2
Sample Rate : 44100
Precision : 16-bit
Duration : 00:03:49.19 = 10107411 samples = 17189.5 CDDA sectors
File Size : 5.82M
Bit Rate : 203k
Sample Encoding: MPEG audio (layer I, II or III)
Comments :
Title=Dead Dream
Artist=Misanthropia
Album=Crucifixion (Demo)
Tracknumber=02
Year=2023
Genre=Depressive Black Metal



Register


Go to the top of the page
  Insert nick Quick quote
+Quote Post
 
Start new topic
Replies (1 - 1)
post May 14 2024, 12:20:57
Post #2

Мегаманьяк
***********
Group: Металариец
Posts: 1,639
Releases: 25
From: Spain
On Forums: 16 years 9 months
Thanks: 1417 time(s)
Spain


Go to the top of the page
  Insert nick Quick quote
+Quote Post

Reply to this topicStart new topic
2 User(s) are reading this topic (2 Guests and 0 Anonymous Users)
0 Members:

 



- Lo-Fi Version Support form
Copyrights and abuse reports form
Time is now: 21st June 2024 - 08:00:59