Welcome Guest ( Log In | Register )

Объявления

* gmail.com упорно продолжает считать почту с нас "unsolicited" и отбивает в том числе и письма активации, поэтому просьба использовать альтернативные почтовые ящики.
------------
* gmail.com continues reject all mail from us as "unsolicited" (activation mails too) therefore please use alternate mail servers.
 
Reply to this topicStart new topic
> Misanthropia - Through The Dark Path [ep] (2023), Depressive Black Metal/Dark Ambient (D9)
post Apr 16 2024, 18:02:37
Post #1

Два Литра
**
Group: Дух
Posts: 133
Releases: 129
From: Новосибирск
On Forums: 4 years 4 months
Thanks: 757 time(s)
Russian Federation


(IMG:https://metalarea.org/images/audiocovers/2024_Apr/acov_tid395738_thumb.jpg)

*Artist: Misanthropia
*Album: Through The Dark Path [ep]
*Year: 2023
*Genre: Depressive Black Metal/Dark Ambient
*Country: Bosnia and Herzegovina (IMG:https://metalarea.org/forum/style_images/flags/Bosnia%20and%20Herzegovina.png)
*Format: mp3@CBR192kbps
*Size: 10MB

Tracklist:
01. Introduction 00:45
02. Untilted Dream 03:28
03. Through The Dark Path 02:52
******************************
Total playing time: 7:06

Technical info
(IMG:https://metalarea.org/images/spectrogram/2024_Apr/b6db74df1a9c72177ba37c9ee5e33763.png)
Input File: 03. Through The Dark Path.mp3
Channels : 2
Sample Rate : 44100
Precision : 16-bit
Duration : 00:02:52.48 = 7606192 samples = 12935.7 CDDA sectors
File Size : 4.31M
Bit Rate : 200k
Sample Encoding: MPEG audio (layer I, II or III)
Comments :
Title=Through The Dark Path
Artist=Misanthropia
Album=Through The Dark Path (EP)
Tracknumber=03
Year=2023
Genre=Depressive Black Metal



Register


Go to the top of the page
  Insert nick Quick quote
+Quote Post

Reply to this topicStart new topic
2 User(s) are reading this topic (2 Guests and 0 Anonymous Users)
0 Members:

 



- Lo-Fi Version Support form
Copyrights and abuse reports form
Time is now: 21st June 2024 - 08:05:40