Welcome Guest ( Log In | Register )

Объявления

* gmail.com упорно продолжает считать почту с нас "unsolicited" и отбивает в том числе и письма активации, поэтому просьба использовать альтернативные почтовые ящики.
------------
* gmail.com continues reject all mail from us as "unsolicited" (activation mails too) therefore please use alternate mail servers.
> Sombres Souvenirs - Souvenirs D'un Spectre (2023), Depressive Black Metal
post Apr 17 2024, 12:38:49
Post #1

Два Литра
**
Group: Дух
Posts: 133
Releases: 129
From: Новосибирск
On Forums: 4 years 4 months
Thanks: 757 time(s)
Russian Federation


(IMG:https://metalarea.org/images/audiocovers/2024_Apr/acov_tid395758_thumb.png)

*Artist: Sombres Souvenirs
*Album: Souvenirs D'un Spectre
*Year: 2023
*Genre: Depressive Black Metal
*Country: Belgium (IMG:https://metalarea.org/forum/style_images/flags/Belgium.png)
*Format: mp3@CBR320kbps
*Size: 56MB

Tracklist:
01. C.12 00:38
02. Dernier Rayon De Lumière 03:39
03. Ne Me Laisse Pas Seul Ici... 03:03
04. Rêve Lucide 02:28
05. Cauchemar Lucide 04:44
06. Souvenirs D'un Spectre 09:20
******************************
Total playing time: 23:52

Technical info
(IMG:https://metalarea.org/images/spectrogram/2024_Apr/a6ec926461f395174dd3eb74ee64b421.png)
Input File: 03. Ne Me Laisse Pas Seul Ici....mp3
Channels : 2
Sample Rate : 44100
Precision : 16-bit
Duration : 00:03:03.86 = 8108182 samples = 13789.4 CDDA sectors
File Size : 7.43M
Bit Rate : 323k
Sample Encoding: MPEG audio (layer I, II or III)
Comments :
Title=Ne Me Laisse Pas Seul Ici...
Artist=Sombres Souvenirs
Album=Souvenirs D'un Spectre
Tracknumber=03
Year=2023
Genre=Depressive Black Metal



Register


Go to the top of the page
  Insert nick Quick quote
+Quote Post
 
Start new topic
Replies (1 - 1)
post Apr 17 2024, 20:21:15
Post #2

Восемь Литров
********
Group: Металариец
Posts: 833
Releases: 20
On Forums: 6 years 3 months
Thanks: 3318 time(s)
Unknown


Go to the top of the page
  Insert nick Quick quote
+Quote Post

Reply to this topicStart new topic
2 User(s) are reading this topic (2 Guests and 0 Anonymous Users)
0 Members:

 



- Lo-Fi Version Support form
Copyrights and abuse reports form
Time is now: 21st June 2024 - 08:13:14