Welcome Guest ( Log In | Register )

Объявления

* gmail.com упорно продолжает считать почту с нас "unsolicited" и отбивает в том числе и письма активации, поэтому просьба использовать альтернативные почтовые ящики.
------------
* gmail.com continues reject all mail from us as "unsolicited" (activation mails too) therefore please use alternate mail servers.
> Sombres Souvenirs - Sombre Chemin [ep] (2024), Depressive Black Metal/Instrumental
post Apr 17 2024, 12:56:56
Post #1

Два Литра
**
Group: Дух
Posts: 133
Releases: 129
From: Новосибирск
On Forums: 4 years 4 months
Thanks: 757 time(s)
Russian Federation


(IMG:https://metalarea.org/images/audiocovers/2024_Apr/acov_tid395759_thumb.jpeg)

*Artist: Sombres Souvenirs
*Album: Sombre Chemin [ep]
*Year: 2024
*Genre: Depressive Black Metal/Instrumental
*Country: Belgium (IMG:https://metalarea.org/forum/style_images/flags/Belgium.png)
*Format: mp3@CBR320kbps
*Size: 41MB

Tracklist:
01. Sombre Chemin I (Fuir Pour Oublier) 02:05
02. Sombre Chemin II (Paranoïa Et Déception) 06:01
03. Sombre Chemin III (Rêverie Douloureuse) 06:26
******************************
Total playing time: 14:32

Technical info
(IMG:https://metalarea.org/images/spectrogram/2024_Apr/97a067249c5d9d1ef41afb0849911091.png)
Input File: 02. Sombre Chemin II (Paranoïa Et Déception).mp3
Channels : 2
Sample Rate : 44100
Precision : 16-bit
Duration : 00:06:01.97 = 15962965 samples = 27147.9 CDDA sectors
File Size : 14.6M
Bit Rate : 323k
Sample Encoding: MPEG audio (layer I, II or III)
Comments :
Title=Sombre Chemin II (Paranoïa Et Déception)
Artist=Sombres Souvenirs
Album=Sombre Chemin (EP)
Tracknumber=02
Year=2024
Genre=Depressive Black Metal



Register


Go to the top of the page
  Insert nick Quick quote
+Quote Post
 
Start new topic
Replies (1 - 1)
post Apr 18 2024, 18:19:21
Post #2

Group: Дух
Posts: 1
Releases: 0
On Forums: 7 months 2 weeks
Thanks: 0 time(s)
Belgium


Go to the top of the page
  Insert nick Quick quote
+Quote Post

Reply to this topicStart new topic
2 User(s) are reading this topic (2 Guests and 0 Anonymous Users)
0 Members:

 



- Lo-Fi Version Support form
Copyrights and abuse reports form
Time is now: 21st June 2024 - 08:29:03